El muñeco de nieve (2017) 1080p Latino

1.365 vistas
1 estrella2 estrellas3 estrellas4 estrellas5 estrellas (Ninguna valoración todavía)
Cargando…

Información de El muñeco de nieve (2017) 1080p Latino

Datos de la película

  • Calidad: 1080p
  • Audio: Español Latino AC3 5.1 DVD - Ingles AC3 5.1 BLURAY
  • Subtitulos: Español Latino SRT- FORZADOS SRT
  • Resolución: 1920X1036p
  • Formato: MKV
  • Codec: H.264
  • Encoder: Dracarys
  • Mediainfo: Clic para Mostrar Datos Ver
  • Format                                   : Matroska
    Format version                           : Version 4 / Version 2
    File size                                : 3.55 GiB
    Duration                                 : 1 h 59 min
    Overall bit rate                         : 4 256 kb/s
    Movie name                               : CinemaniaHDD.com
    Encoded date                             : UTC 2018-01-06 08:15:05 / UTC 2018-01-06T03:04:49Z
    Writing application                      : mkvmerge v15.0.0 ('Duel with the Devil') 64-bit
    Writing library                          : libebml v1.3.5 + libmatroska v1.4.5 / Lavf57.7.2

    Video
    ID                                       : 1
    Format                                   : AVC
    Format/Info                              : Advanced Video Codec
    Format profile                           : High@L4.1
    Format settings                          : CABAC / 4 Ref Frames
    Format settings, CABAC                   : Yes
    Format settings, RefFrames               : 4 frames
    Codec ID                                 : V_MPEG4/ISO/AVC
    Duration                                 : 1 h 59 min
    Bit rate                                 : 3 500 kb/s
    Width                                    : 1 920 pixels
    Height                                   : 1 036 pixels
    Display aspect ratio                     : 1.85:1
    Frame rate mode                          : Constant
    Frame rate                               : 23.976 (24000/1001) FPS
    Color space                              : YUV
    Chroma subsampling                       : 4:2:0
    Bit depth                                : 8 bits
    Scan type                                : Progressive
    Bits/(Pixel*Frame)                       : 0.073
    Stream size                              : 2.84 GiB (80%)
    Title                                    : El muñeco de nieve (2017) 1080p Latino
    Writing library                          : x264 core 148 r2708 86b7198
    Encoding settings                        : cabac=1 / ref=4 / deblock=1:0:0 / analyse=0x3:0x113 / me=umh / subme=8 / psy=1 / psy_rd=1.00:0.00 / mixed_ref=1 / me_range=16 / chroma_me=1 / trellis=1 / 8x8dct=1 / cqm=0 / deadzone=21,11 / fast_pskip=1 / chroma_qp_offset=-2 / threads=32 / lookahead_threads=5 / sliced_threads=0 / nr=0 / decimate=1 / interlaced=0 / bluray_compat=0 / constrained_intra=0 / bframes=3 / b_pyramid=2 / b_adapt=2 / b_bias=0 / direct=3 / weightb=1 / open_gop=0 / weightp=2 / keyint=240 / keyint_min=24 / scenecut=40 / intra_refresh=0 / rc_lookahead=50 / rc=abr / mbtree=1 / bitrate=3500 / ratetol=1.0 / qcomp=0.60 / qpmin=0 / qpmax=69 / qpstep=4 / vbv_maxrate=62500 / vbv_bufsize=78125 / nal_hrd=none / filler=0 / ip_ratio=1.40 / aq=1:1.00
    Language                                 : English
    Default                                  : Yes
    Forced                                   : No
    Color range                              : Limited
    Color primaries                          : BT.709
    Transfer characteristics                 : BT.709
    Matrix coefficients                      : BT.709
    Statistics Tags Issue                    : mkvmerge v15.0.0 ('Duel with the Devil') 64-bit 2018-01-06 08:15:05 / mkvmerge v15.0.0 ('Duel with the Devil') 64-bit 2018-01-06 08:15:05 / UTC 2018-01-06T03:04:49Z
    FromStats_BitRate                        : 3486590
    FromStats_Duration                       : 01:59:15.148000000
    FromStats_FrameCount                     : 171552
    FromStats_StreamSize                     : 3118384235

    Audio #1
    ID                                       : 2
    Format                                   : AC-3
    Format/Info                              : Audio Coding 3
    Format settings, Endianness              : Big
    Codec ID                                 : A_AC3
    Duration                                 : 1 h 59 min
    Bit rate mode                            : Constant
    Bit rate                                 : 384 kb/s
    Channel(s)                               : 6 channels
    Channel positions                        : Front: L C R, Side: L R, LFE
    Sampling rate                            : 48.0 kHz
    Frame rate                               : 31.250 FPS (1536 SPF)
    Bit depth                                : 16 bits
    Compression mode                         : Lossy
    Delay relative to video                  : -5 ms
    Stream size                              : 328 MiB (9%)
    Language                                 : Spanish
    Service kind                             : Complete Main
    Default                                  : Yes
    Forced                                   : No
    Statistics Tags Issue                    : mkvmerge v15.0.0 ('Duel with the Devil') 64-bit 2018-01-06 08:15:05 / mkvmerge v15.0.0 ('Duel with the Devil') 64-bit 2018-01-06 08:15:05 / UTC 2018-01-06T03:04:49Z
    FromStats_BitRate                        : 384000
    FromStats_Duration                       : 01:59:15.680000000
    FromStats_FrameCount                     : 223615
    FromStats_StreamSize                     : 343472640

    Audio #2
    ID                                       : 3
    Format                                   : AC-3
    Format/Info                              : Audio Coding 3
    Format settings, Endianness              : Big
    Codec ID                                 : A_AC3
    Duration                                 : 1 h 59 min
    Bit rate mode                            : Constant
    Bit rate                                 : 384 kb/s
    Channel(s)                               : 6 channels
    Channel positions                        : Front: L C R, Side: L R, LFE
    Sampling rate                            : 48.0 kHz
    Frame rate                               : 31.250 FPS (1536 SPF)
    Bit depth                                : 16 bits
    Compression mode                         : Lossy
    Delay relative to video                  : -5 ms
    Stream size                              : 328 MiB (9%)
    Language                                 : English
    Service kind                             : Complete Main
    Default                                  : No
    Forced                                   : No
    Statistics Tags Issue                    : mkvmerge v15.0.0 ('Duel with the Devil') 64-bit 2018-01-06 08:15:05 / mkvmerge v15.0.0 ('Duel with the Devil') 64-bit 2018-01-06 08:15:05 / UTC 2018-01-06T03:04:49Z
    FromStats_BitRate                        : 384000
    FromStats_Duration                       : 01:59:14.048000000
    FromStats_FrameCount                     : 223564
    FromStats_StreamSize                     : 343394304

    Text #1
    ID                                       : 4
    Format                                   : UTF-8
    Codec ID                                 : S_TEXT/UTF8
    Codec ID/Info                            : UTF-8 Plain Text
    Title                                    : Forzados
    Language                                 : Spanish
    Default                                  : Yes
    Forced                                   : Yes
    Statistics Tags Issue                    : mkvmerge v15.0.0 ('Duel with the Devil') 64-bit 2018-01-06 08:15:05 / mkvmerge v15.0.0 ('Duel with the Devil') 64-bit 2018-01-06 08:15:05 / UTC 2018-01-06T03:04:49Z
    FromStats_BitRate                        : 2
    FromStats_Duration                       : 01:33:14.219000000
    FromStats_FrameCount                     : 54
    FromStats_StreamSize                     : 1773

    Text #2
    ID                                       : 5
    Format                                   : UTF-8
    Codec ID                                 : S_TEXT/UTF8
    Codec ID/Info                            : UTF-8 Plain Text
    Language                                 : Spanish
    Default                                  : No
    Forced                                   : No
    Statistics Tags Issue                    : mkvmerge v15.0.0 ('Duel with the Devil') 64-bit 2018-01-06 08:15:05 / mkvmerge v15.0.0 ('Duel with the Devil') 64-bit 2018-01-06 08:15:05 / UTC 2018-01-06T03:04:49Z
    FromStats_BitRate                        : 38
    FromStats_Duration                       : 01:53:17.672000000
    FromStats_FrameCount                     : 1071
    FromStats_StreamSize                     : 32493

    Menu
    00:00:00.000                             : :00:00:00.000
    00:06:23.008                             : :00:06:23.008
    00:13:43.072                             : :00:13:43.072
    00:20:05.663                             : :00:20:05.663
    00:24:21.377                             : :00:24:21.377
    00:29:25.264                             : :00:29:25.263
    00:33:09.446                             : :00:33:09.321
    00:42:17.285                             : :00:42:17.285
    00:50:44.124                             : :00:50:44.124
    00:55:33.747                             : :00:55:33.747
    01:02:19.903                             : :01:02:19.903
    01:08:06.457                             : :01:08:06.457
    01:12:24.215                             : :01:12:24.215
    01:17:31.397                             : :01:17:31.397
    01:23:55.489                             : :01:23:55.489
    01:29:06.883                             : :01:29:06.883
    01:35:45.323                             : :01:35:45.323
    01:42:39.028                             : :01:42:39.028
    01:50:33.752                             : :01:50:33.752
    01:54:24.066                             : :01:54:23.982

     

  • Peso: 3.55 GiB

Sinopsis

Harry Hole (Michael Fassbender) es un brillante detective, caracterizado por usar métodos poco ortodoxos, que investiga la extraña desaparición de una mujer, madre de un niño. Como única pista: su bufanda rosa favorita, que ha aparecido colgada del cuello de un misterioso muñeco de nieve situado frente a la casa de la desaparecida. Pero, aunque en un principio este parezca un caso aislado, poco después desaparece una segunda mujer, y las peores sospechas de Harry parecen confirmarse: se enfrenta a un asesino en serie que opera en su ciudad.

Ficha técnica

Video trailer de la película

Enlaces de descarga

Rip de Bluray

Descargar El muñeco de nieve (2017) 1080p Latino




Aportes de DPeliculasHDmega la pass es:dpeliculashdmega.org Aportes de CinemaniaHD la pass es:cinemaniahdd.com
Guardado en : Crimen , Drama , Suspense

Películas relacionadas

  • The Night Comes For Us (2018) NF 1080p Latino

    2018
    The Night Comes For Us (2018) NF 1080p Latino

    1.0 2h 1m 2018

    The Night Comes For Us (2018) NF 1080p Latino; Mega, Google Drive. Un antiguo sicario debe proteger a...

    Director: Timo Tjahjanto

    Género: Acción

    Actores: Zack Lee

  • Illang: La brigada del lobo (2018) NF 1080p Latino

    2018
    Illang: La brigada del lobo (2018) NF 1080p Latino

    1.0 2h 19m 2018

    Descargar Illang: La brigada del lobo (2018) NF 1080p Latino; Mega, Google Drive. Basada en el anime...

    Director: Kim Jee-woon

    Género: Acción

    Actores: Shin Eun-soo

  • The Padre (2018) WEB-DL 1080p Latino

    2018
    The Padre (2018) WEB-DL 1080p Latino

    3.0 1h 38m 2018

    Descargar The Padre (2018) WEB-DL 1080p Latino; Mega, Google Drive. El juez estadounidense retirado Randall...

    Director: Jonathan Sobol

    Género: Drama

    Actores: Tim Roth

  • Mentes poderosas (2018) 1080p Latino

    2018
    Mentes poderosas (2018) 1080p Latino

    1.0 1h 45m 2018

    Descargar Mentes poderosas (2018) 1080p Latino; Mega, Google Drive. Encarcelados en un mundo adulto...

    Director: Jennifer Yuh Nelson

    Género: Ciencia ficción

    Actores: William Walker

Comentarios 0