El Justiciero (2014) Full 1080p Latino | CinemaniaHD - Descargar Peliculas 1080p Mega Google Drive

El Justiciero (2014) Full 1080p Latino

1.530 vistas
1 estrella2 estrellas3 estrellas4 estrellas5 estrellas (7 votos, promedio: 4,14 de 5)
Cargando…

Información de El Justiciero (2014) Full 1080p Latino

Datos de la película

  • Calidad: Full 1080p
  • Audio: Español Latino AC3 5.1 BLURAY - Ingles DTS 5.1 BLURAY
  • Subtitulos: Español Latino PGS - Ingles PGS
  • Resolución: 1920x1080p
  • Formato: MKV
  • Codec: H.264
  • Encoder: Dracarys
  • Mediainfo: Clic para Mostrar Datos Ver
  • Format                                   : Matroska
    Format version                           : Version 4 / Version 2
    File size                                : 4.30 GiB
    Duration                                 : 2 h 12 min
    Overall bit rate                         : 4 661 kb/s
    Movie name                               : CinemaniaHDD.net
    Encoded date                             : UTC 2018-07-20 03:52:11 / UTC 2018-07-19T18:31:51Z
    Writing application                      : mkvmerge v15.0.0 ('Duel with the Devil') 64-bit
    Writing library                          : libebml v1.3.5 + libmatroska v1.4.5 / Lavf57.7.2

    Video
    ID                                       : 1
    Format                                   : AVC
    Format/Info                              : Advanced Video Codec
    Format profile                           : High@L4.1
    Format settings                          : CABAC / 4 Ref Frames
    Format settings, CABAC                   : Yes
    Format settings, RefFrames               : 4 frames
    Codec ID                                 : V_MPEG4/ISO/AVC
    Duration                                 : 2 h 12 min
    Bit rate                                 : 2 419 kb/s
    Width                                    : 1 920 pixels
    Height                                   : 1 080 pixels
    Display aspect ratio                     : 16:9
    Frame rate mode                          : Constant
    Frame rate                               : 23.976 (24000/1001) FPS
    Color space                              : YUV
    Chroma subsampling                       : 4:2:0
    Bit depth                                : 8 bits
    Scan type                                : Progressive
    Bits/(Pixel*Frame)                       : 0.049
    Stream size                              : 2.23 GiB (52%)
    Title                                    : El Justiciero (2014) Full 1080p Latino
    Writing library                          : x264 core 148 r2708 86b7198
    Encoding settings                        : cabac=1 / ref=4 / deblock=1:0:0 / analyse=0x3:0x133 / me=esa / subme=10 / psy=1 / psy_rd=1.00:0.00 / mixed_ref=1 / me_range=24 / chroma_me=1 / trellis=2 / 8x8dct=1 / cqm=0 / deadzone=21,11 / fast_pskip=1 / chroma_qp_offset=-2 / threads=34 / lookahead_threads=5 / sliced_threads=0 / nr=0 / decimate=1 / interlaced=0 / bluray_compat=0 / constrained_intra=0 / bframes=8 / b_pyramid=2 / b_adapt=2 / b_bias=0 / direct=3 / weightb=1 / open_gop=0 / weightp=2 / keyint=240 / keyint_min=24 / scenecut=40 / intra_refresh=0 / rc_lookahead=60 / rc=crf / mbtree=1 / crf=20.0 / qcomp=0.60 / qpmin=0 / qpmax=69 / qpstep=4 / vbv_maxrate=62500 / vbv_bufsize=78125 / crf_max=0.0 / nal_hrd=none / filler=0 / ip_ratio=1.40 / aq=1:1.00
    Language                                 : English
    Default                                  : Yes
    Forced                                   : No
    Color range                              : Limited
    Color primaries                          : BT.709
    Transfer characteristics                 : BT.709
    Matrix coefficients                      : BT.709
    Statistics Tags Issue                    : mkvmerge v15.0.0 ('Duel with the Devil') 64-bit 2018-07-20 03:52:11 / mkvmerge v15.0.0 ('Duel with the Devil') 64-bit 2018-07-20 03:52:11 / UTC 2018-07-19T18:31:51Z
    FromStats_BitRate                        : 2491321
    FromStats_Duration                       : 02:12:02.915000000
    FromStats_FrameCount                     : 189960
    FromStats_StreamSize                     : 2467315712

    Audio #1
    ID                                       : 2
    Format                                   : AC-3
    Format/Info                              : Audio Coding 3
    Format settings, Endianness              : Big
    Codec ID                                 : A_AC3
    Duration                                 : 2 h 12 min
    Bit rate mode                            : Constant
    Bit rate                                 : 640 kb/s
    Channel(s)                               : 6 channels
    Channel positions                        : Front: L C R, Side: L R, LFE
    Sampling rate                            : 48.0 kHz
    Frame rate                               : 31.250 FPS (1536 SPF)
    Bit depth                                : 16 bits
    Compression mode                         : Lossy
    Delay relative to video                  : 24 ms
    Stream size                              : 604 MiB (14%)
    Language                                 : Spanish
    Service kind                             : Complete Main
    Default                                  : Yes
    Forced                                   : No
    Statistics Tags Issue                    : mkvmerge v15.0.0 ('Duel with the Devil') 64-bit 2018-07-20 03:52:11 / mkvmerge v15.0.0 ('Duel with the Devil') 64-bit 2018-07-20 03:52:11 / UTC 2018-07-19T18:31:51Z
    FromStats_BitRate                        : 640000
    FromStats_Duration                       : 02:12:02.944000000
    FromStats_FrameCount                     : 247592
    FromStats_StreamSize                     : 633835520

    Audio #2
    ID                                       : 3
    Format                                   : DTS
    Format/Info                              : Digital Theater Systems
    Mode                                     : 16
    Format settings, Endianness              : Big
    Codec ID                                 : A_DTS
    Duration                                 : 2 h 12 min
    Bit rate mode                            : Constant
    Bit rate                                 : 1 509 kb/s
    Channel(s)                               : 6 channels
    Channel positions                        : Front: L C R, Side: L R, LFE
    Sampling rate                            : 48.0 kHz
    Frame rate                               : 93.750 FPS (512 SPF)
    Bit depth                                : 16 bits
    Compression mode                         : Lossy
    Stream size                              : 1.39 GiB (32%)
    Language                                 : English
    Default                                  : No
    Forced                                   : No
    Statistics Tags Issue                    : mkvmerge v15.0.0 ('Duel with the Devil') 64-bit 2018-07-20 03:52:11 / mkvmerge v15.0.0 ('Duel with the Devil') 64-bit 2018-07-20 03:52:11 / UTC 2018-07-19T18:31:51Z
    FromStats_BitRate                        : 1508999
    FromStats_Duration                       : 02:12:02.923000000
    FromStats_FrameCount                     : 742774
    FromStats_StreamSize                     : 1494461288

    Text #1
    ID                                       : 4
    Format                                   : PGS
    Muxing mode                              : zlib
    Codec ID                                 : S_HDMV/PGS
    Codec ID/Info                            : Picture based subtitle format used on BDs/HD-DVDs
    Language                                 : English
    Default                                  : No
    Forced                                   : No
    Statistics Tags Issue                    : mkvmerge v15.0.0 ('Duel with the Devil') 64-bit 2018-07-20 03:52:11 / mkvmerge v15.0.0 ('Duel with the Devil') 64-bit 2018-07-20 03:52:11 / UTC 2018-07-19T18:31:51Z
    FromStats_BitRate                        : 21027
    FromStats_Duration                       : 02:10:52.303000000
    FromStats_FrameCount                     : 3101
    FromStats_StreamSize                     : 20639049

    Text #2
    ID                                       : 5
    Format                                   : PGS
    Muxing mode                              : zlib
    Codec ID                                 : S_HDMV/PGS
    Codec ID/Info                            : Picture based subtitle format used on BDs/HD-DVDs
    Language                                 : Spanish
    Default                                  : No
    Forced                                   : No
    Statistics Tags Issue                    : mkvmerge v15.0.0 ('Duel with the Devil') 64-bit 2018-07-20 03:52:11 / mkvmerge v15.0.0 ('Duel with the Devil') 64-bit 2018-07-20 03:52:11 / UTC 2018-07-19T18:31:51Z
    FromStats_BitRate                        : 20544
    FromStats_Duration                       : 02:10:40.624000000
    FromStats_FrameCount                     : 2238
    FromStats_StreamSize                     : 20135701

    Text #3
    ID                                       : 6
    Format                                   : PGS
    Muxing mode                              : zlib
    Codec ID                                 : S_HDMV/PGS
    Codec ID/Info                            : Picture based subtitle format used on BDs/HD-DVDs
    Title                                    : Forzados
    Language                                 : Spanish
    Default                                  : Yes
    Forced                                   : Yes
    Statistics Tags Issue                    : mkvmerge v15.0.0 ('Duel with the Devil') 64-bit 2018-07-20 03:52:11 / mkvmerge v15.0.0 ('Duel with the Devil') 64-bit 2018-07-20 03:52:11 / UTC 2018-07-19T18:31:51Z
    FromStats_BitRate                        : 794
    FromStats_Duration                       : 02:05:07.958000000
    FromStats_FrameCount                     : 112
    FromStats_StreamSize                     : 746060

    Menu
    00:00:00.000                             : :Chapter 1
    00:06:49.743                             : :Chapter 2
    00:13:03.658                             : :Chapter 3
    00:20:55.463                             : :Chapter 4
    00:25:48.756                             : :Chapter 5
    00:35:26.875                             : :Chapter 6
    00:46:31.956                             : :Chapter 7
    00:55:43.924                             : :Chapter 8
    01:03:59.044                             : :Chapter 9
    01:13:53.054                             : :Chapter 10
    01:20:58.437                             : :Chapter 11
    01:31:09.339                             : :Chapter 12
    01:38:37.703                             : :Chapter 13
    01:47:29.360                             : :Chapter 14
    01:55:38.223                             : :Chapter 15
    02:00:01.236                             : :Chapter 16

  • Peso: 4.30 GiB

Sinopsis

Robert McCall, un antiguo agente de la CIA que lleva ahora una vida tranquila, abandona su retiro para ayudar a Teri, una joven prostituta que está siendo explotada por la mafia rusa. A pesar de que aseguró no volver a ser violento, contemplar tanta crueldad despertará en Robert un implacable y renovado deseo de justicia… Versión cinematográfica de la serie de televisión de los 80, ‘El justiciero’.

Ficha técnica

Video trailer de la película

Enlaces de descarga

Rip de Bluray

Descargar El Justiciero (2014) Full 1080p Latino




Aportes de DPeliculasHDmega la pass es:dpeliculashdmega.org Aportes de CinemaniaHD la pass es:cinemaniahdd.com

Películas relacionadas

  • La jungla (2017) 1080p Latino

    2017
    La jungla (2017) 1080p Latino

    0.0 1h 55m 2017

    Cuenta la historia real de Yossi Ghinsberg, un joven aventurero que vivió para escribir un bestseller...

    Director: Greg McLean

    Género: 1080p Portada Negra

    Actores: Yasmin Kassim

  • V/H/S: (2014) Full 1080p Subtitulado

    2014
    V/H/S: (2014) Full 1080p Subtitulado

    4.2 1 h 21 min 2014

    Un camión está causando el caos en la calle, atropellando a todo aquel que se cruza en su camino. Mientras...

    Director: Todd Lincoln

    Género: FULL 1080p Plateadas

    Actores: Nick Blanco

  • V/H/S Las crónicas del miedo 2 (2013) Full 1080p Latino

    2013
    V/H/S Las crónicas del miedo 2 (2013) Full 1080p Latino

    4.3 1h 35m 2013

    Secuela de V/H/S (2012). Buscando a un estudiante desaparecido, dos investigadores privados irrumpen...

    Director: Timo Tjahjanto

    Género: FULL 1080p Plateadas

    Actores: Samantha Gracie

  • V/H/S Las crónicas del miedo (2012) Full 1080p Latino

    2012
    V/H/S Las crónicas del miedo (2012) Full 1080p Latino

    4.3 1 h 56 min 2012

    Un grupo de matones son contratados por un misterioso sujeto para que vayan a una casa abandonada y encuentren...

    Director: Tyler Gillett

    Género: FULL 1080p Plateadas

    Actores: Tyler Gillett

Comentarios 1
  • ocpgaiden - 20 julio, 2018

    Gracias por la pelicula, saludos