El increíble Burt Wonderstone (2013) Full 1080p Latino

675 vistas
1 estrella2 estrellas3 estrellas4 estrellas5 estrellas (Ninguna valoración todavía)
Cargando…

Información de El increíble Burt Wonderstone (2013) Full 1080p Latino

Datos de la película

  • Calidad: Full 1080p
  • Audio: Español Latino AC3 5.1 BLURAY - Ingles DTS 5.1 BLURAY
  • Subtitulos: Español Latino PGS - Ingles PGS
  • Resolución: 1920x1080p
  • Formato: MKV
  • Codec: H.264
  • Encoder: Dracarys
  • Mediainfo: Clic para Mostrar Datos Ver
  • Format                                   : Matroska
    Format version                           : Version 4 / Version 2
    File size                                : 6.56 GiB
    Duration                                 : 1 h 40 min
    Overall bit rate                         : 9 360 kb/s
    Movie name                               : CinemaniaHDD.com
    Encoded date                             : UTC 2018-05-02 03:55:22 / UTC 2018-05-01T20:01:44Z
    Writing application                      : mkvmerge v15.0.0 ('Duel with the Devil') 64-bit
    Writing library                          : libebml v1.3.5 + libmatroska v1.4.5 / Lavf57.7.2

    Video
    ID                                       : 1
    Format                                   : AVC
    Format/Info                              : Advanced Video Codec
    Format profile                           : High@L4.1
    Format settings                          : CABAC / 4 Ref Frames
    Format settings, CABAC                   : Yes
    Format settings, RefFrames               : 4 frames
    Codec ID                                 : V_MPEG4/ISO/AVC
    Duration                                 : 1 h 40 min
    Bit rate                                 : 7 217 kb/s
    Width                                    : 1 920 pixels
    Height                                   : 1 080 pixels
    Display aspect ratio                     : 16:9
    Frame rate mode                          : Constant
    Frame rate                               : 23.976 (24000/1001) FPS
    Color space                              : YUV
    Chroma subsampling                       : 4:2:0
    Bit depth                                : 8 bits
    Scan type                                : Progressive
    Bits/(Pixel*Frame)                       : 0.145
    Stream size                              : 5.06 GiB (77%)
    Title                                    : El increíble Burt Wonderstone (2013) Full 1080p Latino
    Writing library                          : x264 core 148 r2708 86b7198
    Encoding settings                        : cabac=1 / ref=4 / deblock=1:0:0 / analyse=0x3:0x133 / me=esa / subme=9 / psy=1 / psy_rd=1.00:0.00 / mixed_ref=1 / me_range=16 / chroma_me=1 / trellis=2 / 8x8dct=1 / cqm=0 / deadzone=21,11 / fast_pskip=1 / chroma_qp_offset=-2 / threads=34 / lookahead_threads=2 / sliced_threads=0 / nr=0 / decimate=1 / interlaced=0 / bluray_compat=0 / constrained_intra=0 / bframes=3 / b_pyramid=2 / b_adapt=2 / b_bias=0 / direct=3 / weightb=1 / open_gop=0 / weightp=2 / keyint=240 / keyint_min=24 / scenecut=40 / intra_refresh=0 / rc_lookahead=60 / rc=crf / mbtree=1 / crf=20.0 / qcomp=0.60 / qpmin=0 / qpmax=69 / qpstep=4 / vbv_maxrate=62500 / vbv_bufsize=78125 / crf_max=0.0 / nal_hrd=none / filler=0 / ip_ratio=1.40 / aq=1:1.00
    Language                                 : English
    Default                                  : Yes
    Forced                                   : No
    Color range                              : Limited
    Color primaries                          : BT.709
    Transfer characteristics                 : BT.709
    Matrix coefficients                      : BT.709
    Statistics Tags Issue                    : mkvmerge v15.0.0 ('Duel with the Devil') 64-bit 2018-05-02 03:55:22 / mkvmerge v15.0.0 ('Duel with the Devil') 64-bit 2018-05-02 03:55:22 / UTC 2018-05-01T20:01:44Z
    FromStats_BitRate                        : 7366023
    FromStats_Duration                       : 01:40:18.012000000
    FromStats_FrameCount                     : 144288
    FromStats_StreamSize                     : 5541102312

    Audio #1
    ID                                       : 2
    Format                                   : AC-3
    Format/Info                              : Audio Coding 3
    Format settings, Endianness              : Big
    Codec ID                                 : A_AC3
    Duration                                 : 1 h 40 min
    Bit rate mode                            : Constant
    Bit rate                                 : 448 kb/s
    Channel(s)                               : 6 channels
    Channel positions                        : Front: L C R, Side: L R, LFE
    Sampling rate                            : 48.0 kHz
    Frame rate                               : 31.250 FPS (1536 SPF)
    Bit depth                                : 16 bits
    Compression mode                         : Lossy
    Stream size                              : 321 MiB (5%)
    Language                                 : Spanish
    Service kind                             : Complete Main
    Default                                  : Yes
    Forced                                   : No
    Statistics Tags Issue                    : mkvmerge v15.0.0 ('Duel with the Devil') 64-bit 2018-05-02 03:55:22 / mkvmerge v15.0.0 ('Duel with the Devil') 64-bit 2018-05-02 03:55:22 / UTC 2018-05-01T20:01:44Z
    FromStats_BitRate                        : 448000
    FromStats_Duration                       : 01:40:18.080000000
    FromStats_FrameCount                     : 188065
    FromStats_StreamSize                     : 337012480

    Audio #2
    ID                                       : 3
    Format                                   : DTS
    Format/Info                              : Digital Theater Systems
    Mode                                     : 16
    Format settings, Endianness              : Big
    Codec ID                                 : A_DTS
    Duration                                 : 1 h 40 min
    Bit rate mode                            : Constant
    Bit rate                                 : 1 509 kb/s
    Channel(s)                               : 6 channels
    Channel positions                        : Front: L C R, Side: L R, LFE
    Sampling rate                            : 48.0 kHz
    Frame rate                               : 93.750 FPS (512 SPF)
    Bit depth                                : 24 bits
    Compression mode                         : Lossy
    Stream size                              : 1.06 GiB (16%)
    Language                                 : English
    Default                                  : No
    Forced                                   : No
    Statistics Tags Issue                    : mkvmerge v15.0.0 ('Duel with the Devil') 64-bit 2018-05-02 03:55:22 / mkvmerge v15.0.0 ('Duel with the Devil') 64-bit 2018-05-02 03:55:22 / UTC 2018-05-01T20:01:44Z
    FromStats_BitRate                        : 1509000
    FromStats_Duration                       : 01:40:18.048000000
    FromStats_FrameCount                     : 564192
    FromStats_StreamSize                     : 1135154304

    Text #1
    ID                                       : 4
    Format                                   : PGS
    Muxing mode                              : zlib
    Codec ID                                 : S_HDMV/PGS
    Codec ID/Info                            : Picture based subtitle format used on BDs/HD-DVDs
    Language                                 : English
    Default                                  : No
    Forced                                   : No
    Statistics Tags Issue                    : mkvmerge v15.0.0 ('Duel with the Devil') 64-bit 2018-05-02 03:55:22 / mkvmerge v15.0.0 ('Duel with the Devil') 64-bit 2018-05-02 03:55:22 / UTC 2018-05-01T20:01:44Z
    FromStats_BitRate                        : 41508
    FromStats_Duration                       : 01:39:37.513000000
    FromStats_FrameCount                     : 2932
    FromStats_StreamSize                     : 31014907

    Text #2
    ID                                       : 5
    Format                                   : PGS
    Muxing mode                              : zlib
    Codec ID                                 : S_HDMV/PGS
    Codec ID/Info                            : Picture based subtitle format used on BDs/HD-DVDs
    Language                                 : Spanish
    Default                                  : No
    Forced                                   : No
    Statistics Tags Issue                    : mkvmerge v15.0.0 ('Duel with the Devil') 64-bit 2018-05-02 03:55:22 / mkvmerge v15.0.0 ('Duel with the Devil') 64-bit 2018-05-02 03:55:22 / UTC 2018-05-01T20:01:44Z
    FromStats_BitRate                        : 37629
    FromStats_Duration                       : 01:39:37.513000000
    FromStats_FrameCount                     : 2596
    FromStats_StreamSize                     : 28116478

    Text #3
    ID                                       : 6
    Format                                   : PGS
    Muxing mode                              : zlib
    Codec ID                                 : S_HDMV/PGS
    Codec ID/Info                            : Picture based subtitle format used on BDs/HD-DVDs
    Title                                    : Forzados
    Language                                 : Spanish
    Default                                  : Yes
    Forced                                   : Yes
    Statistics Tags Issue                    : mkvmerge v15.0.0 ('Duel with the Devil') 64-bit 2018-05-02 03:55:22 / mkvmerge v15.0.0 ('Duel with the Devil') 64-bit 2018-05-02 03:55:22 / UTC 2018-05-01T20:01:44Z
    FromStats_BitRate                        : 361
    FromStats_Duration                       : 01:32:08.481000000
    FromStats_FrameCount                     : 28
    FromStats_StreamSize                     : 249878

    Menu
    00:00:00.000                             : :Chapter 1
    00:08:08.405                             : :Chapter 2
    00:19:56.445                             : :Chapter 3
    00:30:13.145                             : :Chapter 4
    00:39:53.308                             : :Chapter 5
    00:49:46.150                             : :Chapter 6
    01:00:48.228                             : :Chapter 7
    01:10:29.142                             : :Chapter 8
    01:19:53.163                             : :Chapter 9
    01:30:04.399                             : :Chapter 10

  • Peso: 6.56 GiB

Sinopsis

Burt Wonderstone, un convencional mago de Las Vegas, está pasando un mal momento: acaba de romper una larga relación romántica con su pareja en el escenario y, por si fuera poco, un nuevo ilusionista, que hace trucos más espectaculares y peligrosos, amenaza con destronarlo.

Ficha técnica

Video trailer de la película

Enlaces de descarga

Rip de Bluray

Descargar El increíble Burt Wonderstone (2013) Full 1080p Latino




Aportes de DPeliculasHDmega la pass es:dpeliculashdmega.org Aportes de CinemaniaHD la pass es:cinemaniahdd.com
Guardado en : Comedia , FULL 1080p Plateadas

Películas relacionadas

  • Love on the Sidelines (2016) WEBDL 1080p Latino

    2016
    Love on the Sidelines (2016) WEBDL 1080p Latino

    0.0 1h 24m 2016

    Una joven sin buena suerte que cae en un trabajo como asistente personal de un mariscal de campo estrellado...

    Director: Terry Ingram

    Género: Comedia

    Actores: Victor Zinck Jr.

  • Sicario (2015) Full 1080p Latino

    2015
    Sicario (2015) Full 1080p Latino

    5.0 2h 1m 2015

    En la zona fronteriza que se extiende entre Estados Unidos y México la joven Kate Macer, una idealista...

    Director: Judi Townsend

    Género: Acción

    Actores: Victor Garber

  • Fahrenheit 451 (2018) Full 1080p Latino

    2018
    Fahrenheit 451 (2018) Full 1080p Latino

    5.0 1h 36m 2018

    Michael B. Jordan y Michael Shannon protagonizan esta adaptación de HBO de la clásica novela distópica...

    Director: Ramin Bahrani

    Género: Ciencia ficción

    Actores: Tim Post

Comentarios 3
  • slash - 08 mayo, 2018

    Muchas gracias.

    • Claudio - 10 mayo, 2018

      cual es la clave para descomprimir ?

      • Dracarys - 10 mayo, 2018

        cinemaniahdd.net