El implacable (2017) 1080p Latino

2.008 vistas
1 estrella2 estrellas3 estrellas4 estrellas5 estrellas (Ninguna valoración todavía)
Cargando…

Información de El implacable (2017) 1080p Latino

Datos de la película

  • Calidad: 1080p
  • Audio: Español Latino AC3 5.1 DVD - Ingles AC3 5.1 BLURAY
  • Subtitulos: Español Latino SRT
  • Resolución: 1920x804p
  • Formato: MKV
  • Codec: H.264
  • Encoder: Dracarys
  • Mediainfo: Clic para Mostrar Datos Ver
  • Format                                   : Matroska
    Format version                           : Version 4 / Version 2
    File size                                : 3.31 GiB
    Duration                                 : 1 h 53 min
    Overall bit rate                         : 4 162 kb/s
    Movie name                               : CinemaniaHDD.com
    Encoded date                             : UTC 2018-03-09 05:31:10 / UTC 2017-12-29T15:32:44Z
    Writing application                      : mkvmerge v15.0.0 ('Duel with the Devil') 64-bit
    Writing library                          : libebml v1.3.5 + libmatroska v1.4.5 / Lavf57.7.2

    Video
    ID                                       : 1
    Format                                   : AVC
    Format/Info                              : Advanced Video Codec
    Format profile                           : High@L4.1
    Format settings                          : CABAC / 5 Ref Frames
    Format settings, CABAC                   : Yes
    Format settings, RefFrames               : 5 frames
    Codec ID                                 : V_MPEG4/ISO/AVC
    Duration                                 : 1 h 53 min
    Bit rate                                 : 3 247 kb/s
    Nominal bit rate                         : 3 500 kb/s
    Width                                    : 1 920 pixels
    Height                                   : 804 pixels
    Display aspect ratio                     : 2.40:1
    Frame rate mode                          : Constant
    Frame rate                               : 23.976 (24000/1001) FPS
    Color space                              : YUV
    Chroma subsampling                       : 4:2:0
    Bit depth                                : 8 bits
    Scan type                                : Progressive
    Bits/(Pixel*Frame)                       : 0.088
    Stream size                              : 2.58 GiB (78%)
    Title                                    : El implacable (2017) 1080p Latino
    Writing library                          : x264 core 148 r2708 86b7198
    Encoding settings                        : cabac=1 / ref=5 / deblock=1:0:0 / analyse=0x3:0x113 / me=umh / subme=8 / psy=1 / psy_rd=1.00:0.00 / mixed_ref=1 / me_range=16 / chroma_me=1 / trellis=1 / 8x8dct=1 / cqm=0 / deadzone=21,11 / fast_pskip=1 / chroma_qp_offset=-2 / threads=25 / lookahead_threads=4 / sliced_threads=0 / nr=0 / decimate=1 / interlaced=0 / bluray_compat=0 / constrained_intra=0 / bframes=3 / b_pyramid=2 / b_adapt=2 / b_bias=0 / direct=3 / weightb=1 / open_gop=0 / weightp=2 / keyint=240 / keyint_min=24 / scenecut=40 / intra_refresh=0 / rc_lookahead=50 / rc=abr / mbtree=1 / bitrate=3500 / ratetol=1.0 / qcomp=0.60 / qpmin=0 / qpmax=69 / qpstep=4 / vbv_maxrate=62500 / vbv_bufsize=78125 / nal_hrd=none / filler=0 / ip_ratio=1.40 / aq=1:1.00
    Language                                 : English
    Default                                  : Yes
    Forced                                   : No
    Color range                              : Limited
    Color primaries                          : BT.709
    Transfer characteristics                 : BT.709
    Matrix coefficients                      : BT.709
    Statistics Tags Issue                    : mkvmerge v15.0.0 ('Duel with the Devil') 64-bit 2018-03-09 05:31:10 / mkvmerge v15.0.0 ('Duel with the Devil') 64-bit 2018-03-09 05:31:10 / UTC 2017-12-29T15:32:44Z
    FromStats_BitRate                        : 3328059
    FromStats_Duration                       : 01:53:52.034000000
    FromStats_FrameCount                     : 163805
    FromStats_StreamSize                     : 2842176629

    Audio #1
    ID                                       : 2
    Format                                   : AC-3
    Format/Info                              : Audio Coding 3
    Format settings, Endianness              : Big
    Codec ID                                 : A_AC3
    Duration                                 : 1 h 53 min
    Bit rate mode                            : Constant
    Bit rate                                 : 448 kb/s
    Channel(s)                               : 6 channels
    Channel positions                        : Front: L C R, Side: L R, LFE
    Sampling rate                            : 48.0 kHz
    Frame rate                               : 31.250 FPS (1536 SPF)
    Bit depth                                : 16 bits
    Compression mode                         : Lossy
    Delay relative to video                  : -5 ms
    Stream size                              : 365 MiB (11%)
    Language                                 : Spanish
    Service kind                             : Complete Main
    Default                                  : Yes
    Forced                                   : No
    Statistics Tags Issue                    : mkvmerge v15.0.0 ('Duel with the Devil') 64-bit 2018-03-09 05:31:10 / mkvmerge v15.0.0 ('Duel with the Devil') 64-bit 2018-03-09 05:31:10 / UTC 2017-12-29T15:32:44Z
    FromStats_BitRate                        : 448000
    FromStats_Duration                       : 01:53:51.136000000
    FromStats_FrameCount                     : 213473
    FromStats_StreamSize                     : 382543616

    Audio #2
    ID                                       : 3
    Format                                   : AC-3
    Format/Info                              : Audio Coding 3
    Format settings, Endianness              : Big
    Codec ID                                 : A_AC3
    Duration                                 : 1 h 53 min
    Bit rate mode                            : Constant
    Bit rate                                 : 384 kb/s
    Channel(s)                               : 6 channels
    Channel positions                        : Front: L C R, Side: L R, LFE
    Sampling rate                            : 48.0 kHz
    Frame rate                               : 31.250 FPS (1536 SPF)
    Bit depth                                : 16 bits
    Compression mode                         : Lossy
    Delay relative to video                  : -5 ms
    Stream size                              : 313 MiB (9%)
    Language                                 : English
    Service kind                             : Complete Main
    Default                                  : No
    Forced                                   : No
    Statistics Tags Issue                    : mkvmerge v15.0.0 ('Duel with the Devil') 64-bit 2018-03-09 05:31:10 / mkvmerge v15.0.0 ('Duel with the Devil') 64-bit 2018-03-09 05:31:10 / UTC 2017-12-29T15:32:44Z
    FromStats_BitRate                        : 384000
    FromStats_Duration                       : 01:53:52.064000000
    FromStats_FrameCount                     : 213502
    FromStats_StreamSize                     : 327939072

    Text
    ID                                       : 4
    Format                                   : UTF-8
    Codec ID                                 : S_TEXT/UTF8
    Codec ID/Info                            : UTF-8 Plain Text
    Language                                 : Spanish
    Default                                  : No
    Forced                                   : No
    Statistics Tags Issue                    : mkvmerge v15.0.0 ('Duel with the Devil') 64-bit 2018-03-09 05:31:10 / mkvmerge v15.0.0 ('Duel with the Devil') 64-bit 2018-03-09 05:31:10 / UTC 2017-12-29T15:32:44Z
    FromStats_BitRate                        : 56
    FromStats_Duration                       : 01:44:28.003000000
    FromStats_FrameCount                     : 1173
    FromStats_StreamSize                     : 44526

    Menu
    00:00:00.000                             : :00:00:00.000
    00:08:19.541                             : :00:08:19.541
    00:15:49.574                             : :00:15:49.574
    00:21:47.765                             : :00:21:47.765
    00:27:04.164                             : :00:27:04.164
    00:32:09.511                             : :00:32:09.511
    00:35:24.164                             : :00:35:24.164
    00:38:30.934                             : :00:38:30.934
    00:43:50.169                             : :00:43:50.169
    00:47:38.189                             : :00:47:38.189
    00:54:10.497                             : :00:54:10.497
    01:01:42.324                             : :01:01:42.324
    01:08:07.333                             : :01:08:07.333
    01:14:14.033                             : :01:14:14.033
    01:18:42.927                             : :01:18:42.927
    01:23:26.877                             : :01:23:26.877
    01:29:18.812                             : :01:29:18.812
    01:38:55.012                             : :01:38:55.012
    01:43:45.928                             : :01:43:45.928
    01:47:09.381                             : :01:47:09.298

  • Peso: 3.31 GiB

Sinopsis

La IRA arrebata a Quan (Jackie Chan) a toda su familia y con ella su vida. La policía le niega ayuda, por lo que el protagonista decide tomarse la venganza por su cuenta.

Ficha técnica

Video trailer de la película

Enlaces de descarga

Rip de Bluray

Descargar El implacable (2017) 1080p Latino




Aportes de DPeliculasHDmega la pass es:dpeliculashdmega.org Aportes de CinemaniaHD la pass es:cinemaniahdd.com
Guardado en : Acción , Suspense

Películas relacionadas

  • Occupation (2018) WEBDL 1080p Subtitulada

    2018
    Occupation (2018) WEBDL 1080p Subtitulada

    0.0 1h 59m 2018

    El film se centra en un grupo de civiles que ven como su pequeño pueblo en Australia es aniquilado por...

    Director: Luke Sparke

    Género: Acción

    Actores: Temuera Morrison

  • El Justiciero (2014) Full 1080p Latino

    2014
    El Justiciero (2014) Full 1080p Latino

    4.3 2 h 12 min 2014

    Robert McCall, un antiguo agente de la CIA que lleva ahora una vida tranquila, abandona su retiro para...

    Director: Deirdre Horgan

    Género: Acción

    Actores: Yan Dron

  • James Bond Live and Let Die (1973) Full 1080p Latino

    1973
    James Bond Live and Let Die (1973) Full 1080p Latino

    0.0 2 h 1 min 1973

    En tan sólo veinticuatro horas, tres agentes del servicio secreto británico que investigaban una red...

    Director: Guy Hamilton

    Género: Acción

    Actores: Yaphet Kotto

Comentarios 4
  • Miguel Angel - 09 marzo, 2018

    La tendremos en calidad Full Hd…

  • William - 09 marzo, 2018

    Muchas gracias por el aporte, es posible subirlo por mega?