El hombre lobo (2010) Extended Cut 1080p Latino

2.081 vistas
1 estrella2 estrellas3 estrellas4 estrellas5 estrellas (1 votos, promedio: 5,00 de 5)
Cargando…

Información de El hombre lobo (2010) Extended Cut 1080p Latino

Datos de la película

  • Calidad: 1080p
  • Audio: Español Latino AC3 2.0 DVD - Ingles AC3 5.1 BLURAY
  • Subtitulos: Español Latino SRT - Ingles SRT
  • Resolución: 1920x1040p
  • Formato: MKV
  • Codec: H.264
  • Encoder: Dpelis
  • Mediainfo: Clic para Mostrar Datos Ver
  • The Wolfman (2010) Extcut 1080p Latino.mkv
    Format                      : Matroska
    Format version              : Version 4 / Version 2
    File size                   : 3.43 GiB
    Duration                    : 1 h 59 min
    Overall bit rate            : 4 122 kb/s
    Movie name                  : DPeliculasHDMega.ORG
    Encoded date                : UTC 2017-08-27 00:48:05 / UTC 2017-08-26T23:20:23Z
    Writing application         : mkvmerge v10.0.0 ('To Drown In You') 64bit
    Writing library             : libebml v1.3.4 + libmatroska v1.4.5 / Lavf57.7.2

    Video
    ID                          : 1
    Format                      : AVC
    Format/Info                 : Advanced Video Codec
    Format profile              : High@L4.1
    Format settings, CABAC      : Yes
    Format settings, ReFrames   : 4 frames
    Codec ID                    : V_MPEG4/ISO/AVC
    Duration                    : 1 h 59 min
    Bit rate                    : 3 500 kb/s
    Width                       : 1 920 pixels
    Height                      : 1 040 pixels
    Display aspect ratio        : 1.85:1
    Frame rate mode             : Constant
    Frame rate                  : 23.976 (24000/1001) FPS
    Color space                 : YUV
    Chroma subsampling          : 4:2:0
    Bit depth                   : 8 bits
    Scan type                   : Progressive
    Bits/(Pixel*Frame)          : 0.073
    Stream size                 : 2.83 GiB (82%)
    Writing library             : x264 core 148 r2708 86b7198
    Encoding settings           : cabac=1 / ref=3 / deblock=1:0:0 / analyse=0x3:0x113 / me=hex / subme=7 / psy=1 / psy_rd=1.00:0.00 / mixed_ref=1 / me_range=16 / chroma_me=1 / trellis=1 / 8x8dct=1 / cqm=0 / deadzone=21,11 / fast_pskip=1 / chroma_qp_offset=-2 / threads=12 / lookahead_threads=2 / sliced_threads=0 / nr=0 / decimate=1 / interlaced=0 / bluray_compat=0 / constrained_intra=0 / bframes=3 / b_pyramid=2 / b_adapt=1 / b_bias=0 / direct=1 / weightb=1 / open_gop=0 / weightp=2 / keyint=240 / keyint_min=24 / scenecut=40 / intra_refresh=0 / rc_lookahead=40 / rc=abr / mbtree=1 / bitrate=3500 / ratetol=1.0 / qcomp=0.60 / qpmin=0 / qpmax=69 / qpstep=4 / vbv_maxrate=62500 / vbv_bufsize=78125 / nal_hrd=none / filler=0 / ip_ratio=1.40 / aq=1:1.00
    Default                     : Yes
    Forced                      : No
    Color range                 : Limited
    Color primaries             : BT.709
    Transfer characteristics    : BT.709
    Matrix coefficients         : BT.709
    Statistics Tags Issue       : mkvmerge v10.0.0 ('To Drown In You') 64bit 2017-08-27 00:48:05 / mkvmerge v10.0.0 ('To Drown In You') 64bit 2017-08-27 00:48:05 / UTC 2017-08-26T23:20:23Z
    FromStats_BitRate           : 3484561
    FromStats_Duration          : 01:58:57.130000000
    FromStats_FrameCount        : 171120
    FromStats_StreamSize        : 3108720632

    Audio #1
    ID                          : 2
    Format                      : AC-3
    Format/Info                 : Audio Coding 3
    Format settings, Endianness : Big
    Codec ID                    : A_AC3
    Duration                    : 1 h 59 min
    Bit rate mode               : Constant
    Bit rate                    : 256 kb/s
    Channel(s)                  : 2 channels
    Channel positions           : Front: L R
    Sampling rate               : 48.0 kHz
    Frame rate                  : 31.250 FPS (1536 spf)
    Bit depth                   : 16 bits
    Compression mode            : Lossy
    Delay relative to video     : -5 ms
    Stream size                 : 218 MiB (6%)
    Language                    : Spanish
    Service kind                : Complete Main
    Default                     : Yes
    Forced                      : No
    Statistics Tags Issue       : mkvmerge v10.0.0 ('To Drown In You') 64bit 2017-08-27 00:48:05 / mkvmerge v10.0.0 ('To Drown In You') 64bit 2017-08-27 00:48:05 / UTC 2017-08-26T23:20:23Z
    FromStats_BitRate           : 256000
    FromStats_Duration          : 01:59:05.856000000
    FromStats_FrameCount        : 223308
    FromStats_StreamSize        : 228667392

    Audio #2
    ID                          : 3
    Format                      : AC-3
    Format/Info                 : Audio Coding 3
    Format settings, Endianness : Big
    Codec ID                    : A_AC3
    Duration                    : 1 h 59 min
    Bit rate mode               : Constant
    Bit rate                    : 384 kb/s
    Channel(s)                  : 6 channels
    Channel positions           : Front: L C R, Side: L R, LFE
    Sampling rate               : 48.0 kHz
    Frame rate                  : 31.250 FPS (1536 spf)
    Bit depth                   : 16 bits
    Compression mode            : Lossy
    Delay relative to video     : -5 ms
    Stream size                 : 327 MiB (9%)
    Title                       : Surround
    Language                    : English
    Service kind                : Complete Main
    Default                     : No
    Forced                      : No
    Statistics Tags Issue       : mkvmerge v10.0.0 ('To Drown In You') 64bit 2017-08-27 00:48:05 / mkvmerge v10.0.0 ('To Drown In You') 64bit 2017-08-27 00:48:05 / UTC 2017-08-26T23:20:23Z
    FromStats_BitRate           : 384000
    FromStats_Duration          : 01:58:58.144000000
    FromStats_FrameCount        : 223067
    FromStats_StreamSize        : 342630912

    Text #1
    ID                          : 4
    Format                      : UTF-8
    Codec ID                    : S_TEXT/UTF8
    Codec ID/Info               : UTF-8 Plain Text
    Language                    : Spanish
    Default                     : Yes
    Forced                      : No
    Statistics Tags Issue       : mkvmerge v10.0.0 ('To Drown In You') 64bit 2017-08-27 00:48:05 / mkvmerge v10.0.0 ('To Drown In You') 64bit 2017-08-27 00:48:05 / UTC 2017-08-26T23:20:23Z
    FromStats_BitRate           : 31
    FromStats_Duration          : 01:51:08.261000000
    FromStats_FrameCount        : 847
    FromStats_StreamSize        : 26334

    Text #2
    ID                          : 5
    Format                      : UTF-8
    Codec ID                    : S_TEXT/UTF8
    Codec ID/Info               : UTF-8 Plain Text
    Language                    : frs
    Default                     : No
    Forced                      : No
    Statistics Tags Issue       : mkvmerge v10.0.0 ('To Drown In You') 64bit 2017-08-27 00:48:05 / mkvmerge v10.0.0 ('To Drown In You') 64bit 2017-08-27 00:48:05 / UTC 2017-08-26T23:20:23Z
    FromStats_BitRate           : 34
    FromStats_Duration          : 01:50:25.329000000
    FromStats_FrameCount        : 917
    FromStats_StreamSize        : 28755

    Menu
    00:00:00.000                : :Full Moon
    00:02:59.888                : :Return Home
    00:13:34.188                : :Man or Beast?
    00:22:50.578                : :Horrors of the Past
    00:27:39.283                : :Once Bitten
    00:34:37.534                : :Do You Believe?
    00:40:50.490                : :Scotland Yard
    00:48:28.364                : :It's Not Safe
    00:52:23.557                : :Cursed
    00:55:22.486                : :Quite Dead
    01:00:49.187                : :Terrible Things
    01:06:46.002                : :In the Asylum
    01:09:41.010                : :Lycanthropy
    01:14:07.568                : :Rest Your Fears
    01:22:06.463                : :I Can Help
    01:28:25.675                : :There Is No Cure
    01:34:25.910                : :Silver Bullets
    01:39:48.357                : :The Show is Over
    01:44:55.956                : :Legend Lives On
    01:52:06.845                : :End Titles

  • Peso: 3.43 GB

Sinopsis

La infancia de Lawrence Talbot se acabó bruscamente la noche que murió su madre. Se marchó de su pueblo, Blackmoor, y tardó décadas en recuperarse e intentar olvidar. Cuando Gwen Conliffe, la prometida de su hermano, le encuentra y le ruega que la ayude a buscar a su amor, que se encuentra desaparecido, Lawrence Talbot regresa a casa. Entonces se entera de que algo brutal, salvaje, con una sed insaciable de sangre ha matado a muchos campesinos. Empieza a encajar las piezas del sangriento rompecabezas y descubre que existe una antigua maldición que convierte a las víctimas en hombres lobo las noches de luna llena. Para acabar con la carnicería y proteger a la mujer de la que se ha enamorado, Lawrence Talbot debe destruir a la temible criatura que se esconde en los bosques cercanos a Blackmoor. Este hombre sencillo con un pasado doloroso sale en busca de la bestia y descubre que él también tiene un lado primitivo que ni siquiera podía imaginar.

Ficha técnica

Video trailer de la película

Enlaces de descarga

Rip de Bluray

Descargar El hombre lobo (2010) Extended Cut 1080p Latino




Aportes de DPeliculasHDmega la pass es:dpeliculashdmega.org Aportes de CinemaniaHD la pass es:cinemaniahdd.com
Guardado en : Drama , Suspense , Terror

Películas relacionadas

  • Isle of the Dead (2016) WEB-DL 1080p Latino

    2016
    Isle of the Dead (2016) WEB-DL 1080p Latino

    0.0 1 h 27 min 2016

    Extraños atrapados en una isla aislada luchan por sobrevivir contra hordas de muertos.     Latino...

    Director: Nick Lyon

    Género: Terror

    Actores: Todd Cattell

  • Tully (2018) 1080p Latino

    2018
    Tully (2018) 1080p Latino

    0.0 1 h 35 min 2018

    La historia de una mujer con tres hijos que, incapaz de lidiar con su bebé recién nacido, contrata...

    Director: Jason Reitman

    Género: Comedia

    Actores: Stormy Ent

  • Si solo pudiera imaginar (2018) Full 1080p Latino

    2018
    Si solo pudiera imaginar (2018) Full 1080p Latino

    5.0 1 h 50 min 2018

    La historia real de la aclamada canción "I Can Only Imagine", la canción cristiana contemporánea más...

    Director: Jon Erwin

    Género: Drama

    Actores: Trace Adkins

  • El Justiciero (2014) Full 1080p Latino

    2014
    El Justiciero (2014) Full 1080p Latino

    4.0 2 h 12 min 2014

    Robert McCall, un antiguo agente de la CIA que lleva ahora una vida tranquila, abandona su retiro para...

    Director: Deirdre Horgan

    Género: Acción

    Actores: Yan Dron

Comentarios 7
  • ricardo azpe - 24 febrero, 2018

    descargue el hombre lobo en 1080 pero no la pude descomprimir pork me dice k el 4 archivo esta dañado

    • dpelis - 01 abril, 2018

      bajar la parte de otro servidor o reparar la parte danada. aca en la web esta el tutorial como reparar rar

  • Jonna - 28 agosto, 2017

    Bien, primeramente perdón por comentar en este post que no es de la películas que hablaré.
    Descargue las 10 partes(películas) de VIERNES 13, El problema es que las
    Partes 1, 2 , 3 y 9 todo bien con el audio latino e inglés.
    Pero las Partes 4, 5, 6, 7, 8 y 10 el audio Inglés es solo comentario del director
    También bajé Freddy vs. Jason de la vieja Cinemaniahdd y presenta el mismo problema, tal vez podrían subir un pack solo audio Inglés correcto para no bajar ni vuelvan a subir todo, Esperando respuesta saludos 🙁

    • dpelis - 28 agosto, 2017

      intentaremos ya son los mismo de cinemaniahd. solo se resubieron. no sabia el problema que tenia, pero se agregara,

      • Jonna - 29 agosto, 2017

        Si, prefiero verlas en su idioma original me conseguí los subs SRT para cada una pero así no se puede, Ojalá pronto lo solucionen. Muchas gracias por su respuesta y trabajo

  • george bermudez - 27 agosto, 2017

    la subirán en portada gris ?

    • dpelis - 28 agosto, 2017

      por el momento no encontrado bluray,, solo rips, pero si encuentro la subire