El Fuera de la ley (2011) Full 1080p Latino

1.090 vistas
1 estrella2 estrellas3 estrellas4 estrellas5 estrellas (5 votos, promedio: 3,40 de 5)
Cargando…

Información de El Fuera de la ley (2011) Full 1080p Latino

Datos de la película

  • Calidad: Full 1080p
  • Audio: Español Latino AC3 5.1 BLURAY - Ingles DTS 5.1 BLURAY
  • Subtitulos: Español Latino SRT
  • Resolución: 1920x1080p
  • Formato: MKV
  • Codec: H.264
  • Encoder: Dracarys
  • Mediainfo: Clic para Mostrar Datos Ver
  • Format                                   : Matroska
    Format version                           : Version 4 / Version 2
    File size                                : 5.84 GiB
    Duration                                 : 1 h 45 min
    Overall bit rate                         : 7 960 kb/s
    Movie name                               : CinemaniaHDD.com
    Encoded date                             : UTC 2018-05-09 01:15:20 / UTC 2018-05-04T10:48:29Z
    Writing application                      : mkvmerge v15.0.0 ('Duel with the Devil') 64-bit
    Writing library                          : libebml v1.3.5 + libmatroska v1.4.5 / Lavf57.7.2

    Video
    ID                                       : 1
    Format                                   : AVC
    Format/Info                              : Advanced Video Codec
    Format profile                           : High@L4.1
    Format settings                          : CABAC / 4 Ref Frames
    Format settings, CABAC                   : Yes
    Format settings, RefFrames               : 4 frames
    Codec ID                                 : V_MPEG4/ISO/AVC
    Duration                                 : 1 h 45 min
    Bit rate                                 : 5 845 kb/s
    Width                                    : 1 920 pixels
    Height                                   : 1 080 pixels
    Display aspect ratio                     : 16:9
    Frame rate mode                          : Constant
    Frame rate                               : 24.000 FPS
    Color space                              : YUV
    Chroma subsampling                       : 4:2:0
    Bit depth                                : 8 bits
    Scan type                                : Progressive
    Bits/(Pixel*Frame)                       : 0.117
    Stream size                              : 4.29 GiB (73%)
    Title                                    : El Fuera de la ley (2011) Full 1080p Latino
    Writing library                          : x264 core 148 r2708 86b7198
    Encoding settings                        : cabac=1 / ref=4 / deblock=1:0:0 / analyse=0x3:0x133 / me=esa / subme=10 / psy=1 / psy_rd=1.00:0.00 / mixed_ref=1 / me_range=24 / chroma_me=1 / trellis=2 / 8x8dct=1 / cqm=0 / deadzone=21,11 / fast_pskip=1 / chroma_qp_offset=-2 / threads=34 / lookahead_threads=5 / sliced_threads=0 / nr=0 / decimate=1 / interlaced=0 / bluray_compat=0 / constrained_intra=0 / bframes=8 / b_pyramid=2 / b_adapt=2 / b_bias=0 / direct=3 / weightb=1 / open_gop=0 / weightp=2 / keyint=240 / keyint_min=24 / scenecut=40 / intra_refresh=0 / rc_lookahead=60 / rc=crf / mbtree=1 / crf=20.0 / qcomp=0.60 / qpmin=0 / qpmax=69 / qpstep=4 / vbv_maxrate=62500 / vbv_bufsize=78125 / crf_max=0.0 / nal_hrd=none / filler=0 / ip_ratio=1.40 / aq=1:1.00
    Language                                 : English
    Default                                  : Yes
    Forced                                   : No
    Color range                              : Limited
    Color primaries                          : BT.709
    Transfer characteristics                 : BT.709
    Matrix coefficients                      : BT.709
    Statistics Tags Issue                    : mkvmerge v15.0.0 ('Duel with the Devil') 64-bit 2018-05-09 01:15:20 / mkvmerge v15.0.0 ('Duel with the Devil') 64-bit 2018-05-09 01:15:20 / UTC 2018-05-04T10:48:29Z
    FromStats_BitRate                        : 5997001
    FromStats_Duration                       : 01:45:01.000000000
    FromStats_FrameCount                     : 151224
    FromStats_StreamSize                     : 4723388153

    Audio #1
    ID                                       : 2
    Format                                   : AC-3
    Format/Info                              : Audio Coding 3
    Format settings, Endianness              : Big
    Codec ID                                 : A_AC3
    Duration                                 : 1 h 45 min
    Bit rate mode                            : Constant
    Bit rate                                 : 448 kb/s
    Channel(s)                               : 6 channels
    Channel positions                        : Front: L C R, Side: L R, LFE
    Sampling rate                            : 48.0 kHz
    Frame rate                               : 31.250 FPS (1536 SPF)
    Bit depth                                : 16 bits
    Compression mode                         : Lossy
    Stream size                              : 337 MiB (6%)
    Language                                 : Spanish
    Service kind                             : Complete Main
    Default                                  : Yes
    Forced                                   : No
    Statistics Tags Issue                    : mkvmerge v15.0.0 ('Duel with the Devil') 64-bit 2018-05-09 01:15:20 / mkvmerge v15.0.0 ('Duel with the Devil') 64-bit 2018-05-09 01:15:20 / UTC 2018-05-04T10:48:29Z
    FromStats_BitRate                        : 448000
    FromStats_Duration                       : 01:44:43.232000000
    FromStats_FrameCount                     : 196351
    FromStats_StreamSize                     : 351860992

    Audio #2
    ID                                       : 3
    Format                                   : DTS
    Format/Info                              : Digital Theater Systems
    Mode                                     : 16
    Format settings, Endianness              : Big
    Codec ID                                 : A_DTS
    Duration                                 : 1 h 45 min
    Bit rate mode                            : Constant
    Bit rate                                 : 1 509 kb/s
    Channel(s)                               : 6 channels
    Channel positions                        : Front: L C R, Side: L R, LFE
    Sampling rate                            : 48.0 kHz
    Frame rate                               : 93.750 FPS (512 SPF)
    Bit depth                                : 16 bits
    Compression mode                         : Lossy
    Stream size                              : 1.11 GiB (19%)
    Language                                 : English
    Default                                  : No
    Forced                                   : No
    Statistics Tags Issue                    : mkvmerge v15.0.0 ('Duel with the Devil') 64-bit 2018-05-09 01:15:20 / mkvmerge v15.0.0 ('Duel with the Devil') 64-bit 2018-05-09 01:15:20 / UTC 2018-05-04T10:48:29Z
    FromStats_BitRate                        : 1509000
    FromStats_Duration                       : 01:45:00.992000000
    FromStats_FrameCount                     : 590718
    FromStats_StreamSize                     : 1188524616

    Text #1
    ID                                       : 4
    Format                                   : UTF-8
    Codec ID                                 : S_TEXT/UTF8
    Codec ID/Info                            : UTF-8 Plain Text
    Title                                    : SRT-Latino
    Language                                 : Spanish
    Default                                  : No
    Forced                                   : No
    Statistics Tags Issue                    : mkvmerge v15.0.0 ('Duel with the Devil') 64-bit 2018-05-09 01:15:20 / mkvmerge v15.0.0 ('Duel with the Devil') 64-bit 2018-05-09 01:15:20 / UTC 2018-05-04T10:48:29Z
    FromStats_BitRate                        : 49
    FromStats_Duration                       : 01:39:03.381000000
    FromStats_FrameCount                     : 1064
    FromStats_StreamSize                     : 36978

    Text #2
    ID                                       : 5
    Format                                   : PGS
    Muxing mode                              : zlib
    Codec ID                                 : S_HDMV/PGS
    Codec ID/Info                            : Picture based subtitle format used on BDs/HD-DVDs
    Language                                 : English
    Default                                  : No
    Forced                                   : No
    Statistics Tags Issue                    : mkvmerge v15.0.0 ('Duel with the Devil') 64-bit 2018-05-09 01:15:20 / mkvmerge v15.0.0 ('Duel with the Devil') 64-bit 2018-05-09 01:15:20 / UTC 2018-05-04T10:48:29Z
    FromStats_BitRate                        : 20381
    FromStats_Duration                       : 01:39:03.208000000
    FromStats_FrameCount                     : 1916
    FromStats_StreamSize                     : 15141111

    Menu
    00:00:00.000                             : :Chapter 1
    00:08:46.750                             : :Chapter 2
    00:19:29.917                             : :Chapter 3
    00:28:36.333                             : :Chapter 4
    00:36:45.208                             : :Chapter 5
    00:46:19.167                             : :Chapter 6
    00:56:20.833                             : :Chapter 7
    01:03:29.917                             : :Chapter 8
    01:12:37.917                             : :Chapter 9
    01:21:03.792                             : :Chapter 10
    01:29:34.167                             : :Chapter 11
    01:39:48.708                             : :Chapter 12

  • Peso: 5.84 GiB

Sinopsis

El profesor Will Gerard (Nicolas Cage) y su mujer Laura (January Jones) llevan una vida tranquila, pero una noche Laura es víctima de una brutal agresión sexual. En el hospital, un misterioso tipo llamado Simon (Guy Pearce) se dirige a Will y se ofrece para hacer justicia y ahorrarles el suplicio de tener que pasar por un proceso judicial. Will está tan alterado que de manera irreflexiva acepta la propuesta. a partir de ese momento se verá metido en una organización justiciera clandestina.

Ficha técnica

Video trailer de la película

Enlaces de descarga

Rip de Bluray

Descargar El Fuera de la ley (2011) Full 1080p Latino




Aportes de DPeliculasHDmega la pass es:dpeliculashdmega.org Aportes de CinemaniaHD la pass es:cinemaniahdd.com

Películas relacionadas

Comentarios 0