El doctor cable (1996) Full 1080p Latino | CinemaniaHD - Descargar Peliculas 1080p Mega Google Drive

El doctor cable (1996) Full 1080p Latino

790 vistas
1 estrella2 estrellas3 estrellas4 estrellas5 estrellas (3 votos, promedio: 5,00 de 5)
Cargando…

Información de El doctor cable (1996) Full 1080p Latino

Datos de la película

  • Calidad: Full 1080p
  • Audio: Español Latino AC3 5.1 BLURAY - Ingles DTS 5.1 BLURAY
  • Subtitulos: Español Latino PGS - Ingles PGS
  • Resolución: 1920x1080p
  • Formato: MKV
  • Codec: H.264
  • Encoder: Dracarys
  • Mediainfo: Clic para Mostrar Datos Ver
  • Format                                   : Matroska
    Format version                           : Version 4 / Version 2
    File size                                : 7.53 GiB
    Duration                                 : 1 h 35 min
    Overall bit rate                         : 11.3 Mb/s
    Movie name                               : CinemaniaHDD.net
    Encoded date                             : UTC 2018-08-09 02:38:01 / UTC 2018-07-27T14:07:55Z
    Writing application                      : mkvmerge v15.0.0 ('Duel with the Devil') 64-bit
    Writing library                          : libebml v1.3.5 + libmatroska v1.4.5 / Lavf57.7.2

    Video
    ID                                       : 1
    Format                                   : AVC
    Format/Info                              : Advanced Video Codec
    Format profile                           : High@L4.1
    Format settings                          : CABAC / 4 Ref Frames
    Format settings, CABAC                   : Yes
    Format settings, RefFrames               : 4 frames
    Codec ID                                 : V_MPEG4/ISO/AVC
    Duration                                 : 1 h 35 min
    Bit rate                                 : 8 880 kb/s
    Width                                    : 1 920 pixels
    Height                                   : 1 080 pixels
    Display aspect ratio                     : 16:9
    Frame rate mode                          : Constant
    Frame rate                               : 23.976 (24000/1001) FPS
    Color space                              : YUV
    Chroma subsampling                       : 4:2:0
    Bit depth                                : 8 bits
    Scan type                                : Progressive
    Bits/(Pixel*Frame)                       : 0.179
    Stream size                              : 5.94 GiB (79%)
    Title                                    : El doctor cable (1996) Full 1080p Latino
    Writing library                          : x264 core 148 r2708 86b7198
    Encoding settings                        : cabac=1 / ref=4 / deblock=1:0:0 / analyse=0x3:0x133 / me=esa / subme=10 / psy=1 / psy_rd=1.00:0.00 / mixed_ref=1 / me_range=24 / chroma_me=1 / trellis=2 / 8x8dct=1 / cqm=0 / deadzone=21,11 / fast_pskip=1 / chroma_qp_offset=-2 / threads=34 / lookahead_threads=5 / sliced_threads=0 / nr=0 / decimate=1 / interlaced=0 / bluray_compat=0 / constrained_intra=0 / bframes=8 / b_pyramid=2 / b_adapt=2 / b_bias=0 / direct=3 / weightb=1 / open_gop=0 / weightp=2 / keyint=240 / keyint_min=24 / scenecut=40 / intra_refresh=0 / rc_lookahead=60 / rc=crf / mbtree=1 / crf=20.0 / qcomp=0.60 / qpmin=0 / qpmax=69 / qpstep=4 / vbv_maxrate=62500 / vbv_bufsize=78125 / crf_max=0.0 / nal_hrd=none / filler=0 / ip_ratio=1.40 / aq=1:1.00
    Language                                 : English
    Default                                  : Yes
    Forced                                   : No
    Color range                              : Limited
    Color primaries                          : BT.709
    Transfer characteristics                 : BT.709
    Matrix coefficients                      : BT.709
    Statistics Tags Issue                    : mkvmerge v15.0.0 ('Duel with the Devil') 64-bit 2018-08-09 02:38:01 / mkvmerge v15.0.0 ('Duel with the Devil') 64-bit 2018-08-09 02:38:01 / UTC 2018-07-27T14:07:55Z
    FromStats_BitRate                        : 9047760
    FromStats_Duration                       : 01:35:45.740000000
    FromStats_FrameCount                     : 137760
    FromStats_StreamSize                     : 6498259984

    Audio #1
    ID                                       : 2
    Format                                   : AC-3
    Format/Info                              : Audio Coding 3
    Format settings, Endianness              : Big
    Codec ID                                 : A_AC3
    Duration                                 : 1 h 35 min
    Bit rate mode                            : Constant
    Bit rate                                 : 640 kb/s
    Channel(s)                               : 6 channels
    Channel positions                        : Front: L C R, Side: L R, LFE
    Sampling rate                            : 48.0 kHz
    Frame rate                               : 31.250 FPS (1536 SPF)
    Bit depth                                : 16 bits
    Compression mode                         : Lossy
    Stream size                              : 438 MiB (6%)
    Language                                 : Spanish
    Service kind                             : Complete Main
    Default                                  : Yes
    Forced                                   : No
    Statistics Tags Issue                    : mkvmerge v15.0.0 ('Duel with the Devil') 64-bit 2018-08-09 02:38:01 / mkvmerge v15.0.0 ('Duel with the Devil') 64-bit 2018-08-09 02:38:01 / UTC 2018-07-27T14:07:55Z
    FromStats_BitRate                        : 640000
    FromStats_Duration                       : 01:35:45.760000000
    FromStats_FrameCount                     : 179555
    FromStats_StreamSize                     : 459660800

    Audio #2
    ID                                       : 3
    Format                                   : DTS
    Format/Info                              : Digital Theater Systems
    Mode                                     : 16
    Format settings, Endianness              : Big
    Codec ID                                 : A_DTS
    Duration                                 : 1 h 35 min
    Bit rate mode                            : Constant
    Bit rate                                 : 1 509 kb/s
    Channel(s)                               : 6 channels
    Channel positions                        : Front: L C R, Side: L R, LFE
    Sampling rate                            : 48.0 kHz
    Frame rate                               : 93.750 FPS (512 SPF)
    Bit depth                                : 24 bits
    Compression mode                         : Lossy
    Delay relative to video                  : 11 ms
    Stream size                              : 1.01 GiB (13%)
    Language                                 : English
    Default                                  : No
    Forced                                   : No
    Statistics Tags Issue                    : mkvmerge v15.0.0 ('Duel with the Devil') 64-bit 2018-08-09 02:38:01 / mkvmerge v15.0.0 ('Duel with the Devil') 64-bit 2018-08-09 02:38:01 / UTC 2018-07-27T14:07:55Z
    FromStats_BitRate                        : 1509000
    FromStats_Duration                       : 01:35:45.728000000
    FromStats_FrameCount                     : 538662
    FromStats_StreamSize                     : 1083787944

    Text #1
    ID                                       : 4
    Format                                   : PGS
    Muxing mode                              : zlib
    Codec ID                                 : S_HDMV/PGS
    Codec ID/Info                            : Picture based subtitle format used on BDs/HD-DVDs
    Language                                 : English
    Default                                  : No
    Forced                                   : No
    Statistics Tags Issue                    : mkvmerge v15.0.0 ('Duel with the Devil') 64-bit 2018-08-09 02:38:01 / mkvmerge v15.0.0 ('Duel with the Devil') 64-bit 2018-08-09 02:38:01 / UTC 2018-07-27T14:07:55Z
    FromStats_BitRate                        : 27880
    FromStats_Duration                       : 01:31:20.433000000
    FromStats_FrameCount                     : 1682
    FromStats_StreamSize                     : 19099933

    Text #2
    ID                                       : 5
    Format                                   : PGS
    Muxing mode                              : zlib
    Codec ID                                 : S_HDMV/PGS
    Codec ID/Info                            : Picture based subtitle format used on BDs/HD-DVDs
    Language                                 : Spanish
    Default                                  : No
    Forced                                   : No
    Statistics Tags Issue                    : mkvmerge v15.0.0 ('Duel with the Devil') 64-bit 2018-08-09 02:38:01 / mkvmerge v15.0.0 ('Duel with the Devil') 64-bit 2018-08-09 02:38:01 / UTC 2018-07-27T14:07:55Z
    FromStats_BitRate                        : 33848
    FromStats_Duration                       : 01:30:33.345000000
    FromStats_FrameCount                     : 2587
    FromStats_StreamSize                     : 22988615

    Text #3
    ID                                       : 6
    Format                                   : PGS
    Muxing mode                              : zlib
    Codec ID                                 : S_HDMV/PGS
    Codec ID/Info                            : Picture based subtitle format used on BDs/HD-DVDs
    Title                                    : Forzados
    Language                                 : Spanish
    Default                                  : Yes
    Forced                                   : Yes
    Statistics Tags Issue                    : mkvmerge v15.0.0 ('Duel with the Devil') 64-bit 2018-08-09 02:38:01 / mkvmerge v15.0.0 ('Duel with the Devil') 64-bit 2018-08-09 02:38:01 / UTC 2018-07-27T14:07:55Z
    FromStats_BitRate                        : 60696
    FromStats_Duration                       : 01:35:27.180000000
    FromStats_FrameCount                     : 3668
    FromStats_StreamSize                     : 43452669

    Menu
    00:00:00.000                             : :Chapter 1
    00:04:07.873                             : :Chapter 2
    00:11:00.118                             : :Chapter 3
    00:17:48.484                             : :Chapter 4
    00:23:36.081                             : :Chapter 5
    00:29:40.821                             : :Chapter 6
    00:37:31.791                             : :Chapter 7
    00:44:38.551                             : :Chapter 8
    00:50:20.017                             : :Chapter 9
    00:55:16.355                             : :Chapter 10
    01:02:09.392                             : :Chapter 11
    01:08:01.077                             : :Chapter 12
    01:15:11.841                             : :Chapter 13
    01:20:14.101                             : :Chapter 14
    01:23:23.040                             : :Chapter 15
    01:29:43.420                             : :Chapter 16

  • Peso: 7.53 GiB

Sinopsis

Un instalador del cable (Jim Carrey) llamado Ernie “Chip” Douglas atiende a Steven Kovacs (Matthew Broderick), que acaba de mudarse tras cortar con su novia Robin (Leslie Mann). Durante la instalación en la nueva casa Chip y Steven se llevan bien, y saliendo juntos crean una buena aunque curiosa amistad. Al principio todo va bien, y Steven vuelve con Robin, pero Chip se toma la amistad muy en serio, convirtiéndose en un neurótico acosador. Y, para desgracia de Steven, Chip cae bien a todos los de su círculo familiar, incluso a su novia a los cuales Chip logra manipular a tal punto que hace ver a Steven como un perfecto insoportable y a sí mismo como a la víctima de los arranques de ira de Steven.

Ficha técnica

Video trailer de la película

Enlaces de descarga

Rip de Bluray

Descargar El doctor cable (1996) Full 1080p Latino




Aportes de DPeliculasHDmega la pass es:dpeliculashdmega.org Aportes de CinemaniaHD la pass es:cinemaniahdd.com

Películas relacionadas

  • La jungla (2017) 1080p Latino

    2017
    La jungla (2017) 1080p Latino

    0.0 1h 55m 2017

    Cuenta la historia real de Yossi Ghinsberg, un joven aventurero que vivió para escribir un bestseller...

    Director: Greg McLean

    Género: 1080p Portada Negra

    Actores: Yasmin Kassim

  • V/H/S: (2014) Full 1080p Subtitulado

    2014
    V/H/S: (2014) Full 1080p Subtitulado

    4.2 1 h 21 min 2014

    Un camión está causando el caos en la calle, atropellando a todo aquel que se cruza en su camino. Mientras...

    Director: Todd Lincoln

    Género: FULL 1080p Plateadas

    Actores: Nick Blanco

  • V/H/S Las crónicas del miedo 2 (2013) Full 1080p Latino

    2013
    V/H/S Las crónicas del miedo 2 (2013) Full 1080p Latino

    4.3 1h 35m 2013

    Secuela de V/H/S (2012). Buscando a un estudiante desaparecido, dos investigadores privados irrumpen...

    Director: Timo Tjahjanto

    Género: FULL 1080p Plateadas

    Actores: Samantha Gracie

Comentarios 0