El día después de mañana (2004) [Open Matte] WEB-DL 1080p Latino

1.144 vistas
1 estrella2 estrellas3 estrellas4 estrellas5 estrellas (1 votos, promedio: 5,00 de 5)
Cargando…

Información de El día después de mañana (2004) [Open Matte] WEB-DL 1080p Latino

Datos de la película

  • Calidad: WEBDL
  • Audio: Español Latino AC3 5.1 BLURAY - Ingles DTS 5.1 BLURAY
  • Subtitulos: Español Latino SRT
  • Resolución: 1920X1080p
  • Formato: MKV
  • Codec: H.264
  • Encoder: Dracarys
  • Mediainfo: Clic para Mostrar Datos Ver
  • Format                                   : Matroska
    Format version                           : Version 4 / Version 2
    File size                                : 5.27 GiB
    Duration                                 : 2 h 3 min
    Overall bit rate                         : 6 100 kb/s
    Movie name                               : CinemaniaHDD.com
    Encoded date                             : UTC 2018-02-01 04:16:04
    Writing application                      : mkvmerge v15.0.0 ('Duel with the Devil') 64-bit
    Writing library                          : libebml v1.3.5 + libmatroska v1.4.5

    Video
    ID                                       : 1
    Format                                   : AVC
    Format/Info                              : Advanced Video Codec
    Format profile                           : High@L4.1
    Format settings                          : CABAC / 4 Ref Frames
    Format settings, CABAC                   : Yes
    Format settings, RefFrames               : 4 frames
    Codec ID                                 : V_MPEG4/ISO/AVC
    Duration                                 : 2 h 3 min
    Bit rate                                 : 5 120 kb/s
    Width                                    : 1 920 pixels
    Height                                   : 1 080 pixels
    Display aspect ratio                     : 16:9
    Frame rate mode                          : Constant
    Frame rate                               : 23.976 (24000/1001) FPS
    Color space                              : YUV
    Chroma subsampling                       : 4:2:0
    Bit depth                                : 8 bits
    Scan type                                : Progressive
    Bits/(Pixel*Frame)                       : 0.103
    Stream size                              : 4.23 GiB (80%)
    Title                                    : El día después de mañana (2004) [Open Matte] WEB-DL 1080p Latino
    Writing library                          : x264 core 142
    Encoding settings                        : cabac=1 / ref=3 / deblock=1:0:0 / analyse=0x3:0x113 / me=hex / subme=7 / psy=1 / psy_rd=1.00:0.00 / mixed_ref=1 / me_range=16 / chroma_me=1 / trellis=1 / 8x8dct=1 / cqm=0 / deadzone=21,11 / fast_pskip=1 / chroma_qp_offset=-2 / threads=8 / lookahead_threads=1 / sliced_threads=0 / nr=0 / decimate=1 / interlaced=0 / bluray_compat=0 / constrained_intra=0 / bframes=6 / b_pyramid=2 / b_adapt=1 / b_bias=0 / direct=1 / weightb=1 / open_gop=0 / weightp=2 / keyint=200 / keyint_min=20 / scenecut=0 / intra_refresh=0 / rc_lookahead=40 / rc=2pass / mbtree=1 / bitrate=5120 / ratetol=1.0 / qcomp=0.60 / qpmin=0 / qpmax=69 / qpstep=4 / cplxblur=20.0 / qblur=0.5 / vbv_maxrate=7680 / vbv_bufsize=20480 / nal_hrd=none / filler=0 / ip_ratio=1.40 / aq=1:1.00
    Language                                 : English
    Default                                  : Yes
    Forced                                   : Yes

    Audio #1
    ID                                       : 2
    Format                                   : AC-3
    Format/Info                              : Audio Coding 3
    Format settings, Endianness              : Big
    Codec ID                                 : A_AC3
    Duration                                 : 2 h 3 min
    Bit rate mode                            : Constant
    Bit rate                                 : 448 kb/s
    Channel(s)                               : 6 channels
    Channel positions                        : Front: L C R, Side: L R, LFE
    Sampling rate                            : 48.0 kHz
    Frame rate                               : 31.250 FPS (1536 SPF)
    Bit depth                                : 16 bits
    Compression mode                         : Lossy
    Delay relative to video                  : -2 s 0 ms
    Stream size                              : 396 MiB (7%)
    Language                                 : Spanish
    Service kind                             : Complete Main
    Default                                  : Yes
    Forced                                   : No

    Audio #2
    ID                                       : 3
    Format                                   : DTS
    Format/Info                              : Digital Theater Systems
    Mode                                     : 16
    Format settings, Endianness              : Big
    Codec ID                                 : A_DTS
    Duration                                 : 2 h 3 min
    Bit rate mode                            : Constant
    Bit rate                                 : 755 kb/s
    Channel(s)                               : 6 channels
    Channel positions                        : Front: L C R, Side: L R, LFE
    Sampling rate                            : 48.0 kHz
    Frame rate                               : 93.750 FPS (512 SPF)
    Bit depth                                : 24 bits
    Compression mode                         : Lossy
    Delay relative to video                  : -2 s 0 ms
    Stream size                              : 667 MiB (12%)
    Language                                 : English
    Default                                  : No
    Forced                                   : No

    Text
    ID                                       : 4
    Format                                   : UTF-8
    Codec ID                                 : S_TEXT/UTF8
    Codec ID/Info                            : UTF-8 Plain Text
    Duration                                 : 1 h 52 min
    Bit rate                                 : 54 b/s
    Count of elements                        : 1170
    Stream size                              : 45.2 KiB (0%)
    Language                                 : Spanish
    Default                                  : No
    Forced                                   : No

    Menu
    00:00:00.000                             : en:Chapter 1
    00:03:07.562                             : en:Chapter 2
    00:06:15.792                             : en:Chapter 3
    00:09:17.181                             : en:Chapter 4
    00:12:04.432                             : en:Chapter 5
    00:15:42.733                             : en:Chapter 6
    00:18:37.699                             : en:Chapter 7
    00:20:45.661                             : en:Chapter 8
    00:22:41.401                             : en:Chapter 9
    00:24:13.326                             : en:Chapter 10
    00:31:22.922                             : en:Chapter 11
    00:38:26.303                             : en:Chapter 12
    00:42:14.948                             : en:Chapter 13
    00:48:08.010                             : en:Chapter 14
    00:51:15.655                             : en:Chapter 15
    00:54:12.415                             : en:Chapter 16
    01:03:00.151                             : en:Chapter 17
    01:06:22.353                             : en:Chapter 18
    01:08:09.835                             : en:Chapter 19
    01:11:26.615                             : en:Chapter 20
    01:13:40.248                             : en:Chapter 21
    01:17:46.995                             : en:Chapter 22
    01:20:52.430                             : en:Chapter 23
    01:24:08.001                             : en:Chapter 24
    01:27:57.647                             : en:Chapter 25
    01:29:35.870                             : en:Chapter 26
    01:32:18.616                             : en:Chapter 27
    01:38:42.958                             : en:Chapter 28
    01:41:34.463                             : en:Chapter 29
    01:46:57.911                             : en:Chapter 30
    01:50:41.676                             : en:Chapter 31
    01:55:38.598                             : en:Chapter 32
    02:03:39.411                             : en:Chapter 33

  • Peso: 5.27 GiB

Sinopsis

Las investigaciones del climatólogo Jack Hall indican que el calentamiento global podría desencadenar un repentino y catastrófico cambio climático de la Tierra. Las perforaciones realizadas en la Antártida demuestran que es algo que ya ha ocurrido hace diez mil años. Hall advierte a los dirigentes políticos de la necesidad de adoptar inmediatamente medidas para evitarlo. Pero sus advertencias llegan demasiado tarde. Todo empieza cuando Hall presencia cómo un bloque de hielo del tamaño de Rhode Island se desgaja completamente de la Antártida. A continuación, una serie de fenómenos climáticos inesperados empiezan a producirse en distintas partes del globo: bolas de granizo del tamaño de un pomelo destrozan Tokio, vientos huracanados arrasan Hawaii, nieva en Nueva Delhi y una serie de tornados devastan Los Angeles.

Ficha técnica

Video trailer de la película

Enlaces de descarga

Rip de Bluray

Descargar El día después de mañana (2004) [Open Matte] WEB-DL 1080p Latino




Aportes de DPeliculasHDmega la pass es:dpeliculashdmega.org Aportes de CinemaniaHD la pass es:cinemaniahdd.com

Películas relacionadas

  • El Justiciero (2014) Full 1080p Latino

    2014
    El Justiciero (2014) Full 1080p Latino

    4.0 2 h 12 min 2014

    Robert McCall, un antiguo agente de la CIA que lleva ahora una vida tranquila, abandona su retiro para...

    Director: Deirdre Horgan

    Género: Acción

    Actores: Yan Dron

  • James Bond Live and Let Die (1973) Full 1080p Latino

    1973
    James Bond Live and Let Die (1973) Full 1080p Latino

    0.0 2 h 1 min 1973

    En tan sólo veinticuatro horas, tres agentes del servicio secreto británico que investigaban una red...

    Director: Guy Hamilton

    Género: Acción

    Actores: Yaphet Kotto

Comentarios 6
  • onys - 01 febrero, 2018

    que significa open matte?

    • Dracarys - 03 febrero, 2018

      Sin Franjas negras

  • Jairo - 01 febrero, 2018

    Buenas, que significa OPEN MATE, eh visto que varias peliculas han subido varias pelicuas con ese “formato”, si es que se le puede llamar asi.

    • Dracarys - 03 febrero, 2018

      Son Franjas negras. Full pantalla

      • Jairo - 03 febrero, 2018

        Pero la calidad de las peliculas es como si fueran las pesadas no?

        • Dracarys - 03 febrero, 2018

          asi es.