Deseo de matar (2018) Full 1080p Latino

2.447 vistas
1 estrella2 estrellas3 estrellas4 estrellas5 estrellas (10 votos, promedio: 3,80 de 5)
Cargando…

Información de Deseo de matar (2018) Full 1080p Latino

Datos de la película

  • Calidad: Full 1080p
  • Audio: Español Latino AC3 5.1 BLURAY - Ingles DTS 5.1 BLURAY
  • Subtitulos: Español Latino PGS - Ingles PGS
  • Resolución: 1920x1080p
  • Formato: MKV
  • Codec: H.264
  • Encoder: Dracarys
  • Mediainfo: Clic para Mostrar Datos Ver
  • Format                                   : Matroska
    Format version                           : Version 4 / Version 2
    File size                                : 3.85 GiB
    Duration                                 : 1 h 46 min
    Overall bit rate                         : 5 166 kb/s
    Movie name                               : CinemaniaHDD.net
    Encoded date                             : UTC 2018-05-29 18:18:54 / UTC 2018-05-29T09:04:38Z
    Writing application                      : mkvmerge v15.0.0 ('Duel with the Devil') 64-bit
    Writing library                          : libebml v1.3.5 + libmatroska v1.4.5 / Lavf57.7.2

    Video
    ID                                       : 1
    Format                                   : AVC
    Format/Info                              : Advanced Video Codec
    Format profile                           : High@L4.1
    Format settings                          : CABAC / 4 Ref Frames
    Format settings, CABAC                   : Yes
    Format settings, RefFrames               : 4 frames
    Codec ID                                 : V_MPEG4/ISO/AVC
    Duration                                 : 1 h 46 min
    Bit rate                                 : 3 107 kb/s
    Width                                    : 1 920 pixels
    Height                                   : 1 080 pixels
    Display aspect ratio                     : 16:9
    Frame rate mode                          : Constant
    Frame rate                               : 23.976 (24000/1001) FPS
    Color space                              : YUV
    Chroma subsampling                       : 4:2:0
    Bit depth                                : 8 bits
    Scan type                                : Progressive
    Bits/(Pixel*Frame)                       : 0.062
    Stream size                              : 2.32 GiB (60%)
    Title                                    : Deseo de matar (2018) Full 1080p Latino
    Writing library                          : x264 core 148 r2708 86b7198
    Encoding settings                        : cabac=1 / ref=4 / deblock=1:0:0 / analyse=0x3:0x133 / me=esa / subme=9 / psy=1 / psy_rd=1.00:0.00 / mixed_ref=1 / me_range=16 / chroma_me=1 / trellis=2 / 8x8dct=1 / cqm=0 / deadzone=21,11 / fast_pskip=1 / chroma_qp_offset=-2 / threads=34 / lookahead_threads=2 / sliced_threads=0 / nr=0 / decimate=1 / interlaced=0 / bluray_compat=0 / constrained_intra=0 / bframes=3 / b_pyramid=2 / b_adapt=2 / b_bias=0 / direct=3 / weightb=1 / open_gop=0 / weightp=2 / keyint=240 / keyint_min=24 / scenecut=40 / intra_refresh=0 / rc_lookahead=60 / rc=crf / mbtree=1 / crf=20.0 / qcomp=0.60 / qpmin=0 / qpmax=69 / qpstep=4 / vbv_maxrate=62500 / vbv_bufsize=78125 / crf_max=0.0 / nal_hrd=none / filler=0 / ip_ratio=1.40 / aq=1:1.00
    Language                                 : English
    Default                                  : Yes
    Forced                                   : No
    Color range                              : Limited
    Color primaries                          : BT.709
    Transfer characteristics                 : BT.709
    Matrix coefficients                      : BT.709
    Statistics Tags Issue                    : mkvmerge v15.0.0 ('Duel with the Devil') 64-bit 2018-05-29 18:18:54 / mkvmerge v15.0.0 ('Duel with the Devil') 64-bit 2018-05-29 18:18:54 / UTC 2018-05-29T09:04:38Z
    FromStats_BitRate                        : 3181747
    FromStats_Duration                       : 01:46:43.606000000
    FromStats_FrameCount                     : 153533
    FromStats_StreamSize                     : 2546831867

    Audio #1
    ID                                       : 2
    Format                                   : AC-3
    Format/Info                              : Audio Coding 3
    Format settings, Endianness              : Big
    Codec ID                                 : A_AC3
    Duration                                 : 1 h 46 min
    Bit rate mode                            : Constant
    Bit rate                                 : 448 kb/s
    Channel(s)                               : 6 channels
    Channel positions                        : Front: L C R, Side: L R, LFE
    Sampling rate                            : 48.0 kHz
    Frame rate                               : 31.250 FPS (1536 SPF)
    Bit depth                                : 16 bits
    Compression mode                         : Lossy
    Stream size                              : 342 MiB (9%)
    Language                                 : Spanish
    Service kind                             : Complete Main
    Default                                  : Yes
    Forced                                   : No
    Statistics Tags Issue                    : mkvmerge v15.0.0 ('Duel with the Devil') 64-bit 2018-05-29 18:18:54 / mkvmerge v15.0.0 ('Duel with the Devil') 64-bit 2018-05-29 18:18:54 / UTC 2018-05-29T09:04:38Z
    FromStats_BitRate                        : 448000
    FromStats_Duration                       : 01:46:43.648000000
    FromStats_FrameCount                     : 200114
    FromStats_StreamSize                     : 358604288

    Audio #2
    ID                                       : 3
    Format                                   : DTS
    Format/Info                              : Digital Theater Systems
    Mode                                     : 16
    Format settings, Endianness              : Big
    Codec ID                                 : A_DTS
    Duration                                 : 1 h 46 min
    Bit rate mode                            : Constant
    Bit rate                                 : 1 509 kb/s
    Channel(s)                               : 6 channels
    Channel positions                        : Front: L C R, Side: L R, LFE
    Sampling rate                            : 48.0 kHz
    Frame rate                               : 93.750 FPS (512 SPF)
    Bit depth                                : 24 bits
    Compression mode                         : Lossy
    Stream size                              : 1.12 GiB (29%)
    Language                                 : English
    Default                                  : No
    Forced                                   : No
    Statistics Tags Issue                    : mkvmerge v15.0.0 ('Duel with the Devil') 64-bit 2018-05-29 18:18:54 / mkvmerge v15.0.0 ('Duel with the Devil') 64-bit 2018-05-29 18:18:54 / UTC 2018-05-29T09:04:38Z
    FromStats_BitRate                        : 1508999
    FromStats_Duration                       : 01:46:43.638000000
    FromStats_FrameCount                     : 600341
    FromStats_StreamSize                     : 1207886092

    Text #1
    ID                                       : 4
    Format                                   : PGS
    Muxing mode                              : zlib
    Codec ID                                 : S_HDMV/PGS
    Codec ID/Info                            : Picture based subtitle format used on BDs/HD-DVDs
    Language                                 : English
    Default                                  : No
    Forced                                   : No
    Statistics Tags Issue                    : mkvmerge v15.0.0 ('Duel with the Devil') 64-bit 2018-05-29 18:18:54 / mkvmerge v15.0.0 ('Duel with the Devil') 64-bit 2018-05-29 18:18:54 / UTC 2018-05-29T09:04:38Z
    FromStats_BitRate                        : 46740
    FromStats_Duration                       : 01:39:50.192000000
    FromStats_FrameCount                     : 3372
    FromStats_StreamSize                     : 34998360

    Text #2
    ID                                       : 5
    Format                                   : PGS
    Muxing mode                              : zlib
    Codec ID                                 : S_HDMV/PGS
    Codec ID/Info                            : Picture based subtitle format used on BDs/HD-DVDs
    Language                                 : Spanish
    Default                                  : No
    Forced                                   : No
    Statistics Tags Issue                    : mkvmerge v15.0.0 ('Duel with the Devil') 64-bit 2018-05-29 18:18:54 / mkvmerge v15.0.0 ('Duel with the Devil') 64-bit 2018-05-29 18:18:54 / UTC 2018-05-29T09:04:38Z
    FromStats_BitRate                        : 37924
    FromStats_Duration                       : 01:46:19.206000000
    FromStats_FrameCount                     : 2776
    FromStats_StreamSize                     : 30241357

    Menu
    00:00:00.000                             : :Chapter 1
    00:05:39.089                             : :Chapter 2
    00:08:51.239                             : :Chapter 3
    00:11:55.798                             : :Chapter 4
    00:19:12.860                             : :Chapter 5
    00:24:34.139                             : :Chapter 6
    00:28:37.174                             : :Chapter 7
    00:32:45.964                             : :Chapter 8
    00:36:15.840                             : :Chapter 9
    00:43:49.168                             : :Chapter 10
    00:47:10.411                             : :Chapter 11
    00:53:49.518                             : :Chapter 12
    00:56:56.330                             : :Chapter 13
    01:00:27.082                             : :Chapter 14
    01:07:55.154                             : :Chapter 15
    01:11:16.564                             : :Chapter 16
    01:15:52.256                             : :Chapter 17
    01:19:23.926                             : :Chapter 18
    01:22:41.415                             : :Chapter 19
    01:25:43.889                             : :Chapter 20
    01:28:20.837                             : :Chapter 21
    01:31:24.813                             : :Chapter 22
    01:37:14.537                             : :Chapter 23
    01:40:07.585                             : :Chapter 24

  • Peso: 3.85 GiB

Sinopsis

Paul Kersey (Bruce Willis) es un famoso cirujano que vive con su familia en Nueva York. Un día, su esposa (Elisabeth Shue) y su hija (Camila Morrone) son brutalmente atacadas en su casa. Paul, que siempre había sido un tipo tranquilo, siente cómo la sed de venganza va apoderándose de él. Con la policía sobrecargada de crímenes, decide tomar la justicia por su mano e ir en busca de los agresores de su familia y de paso enfrentarse a todo tipo de criminales de la Gran Manzana. A medida que las víctimas acaparan la atención de los medios, la ciudad se pregunta si este vengador es un ángel guardián… o un simple justiciero.

Ficha técnica

Video trailer de la película

Enlaces de descarga

Rip de Bluray

Descargar Deseo de matar (2018) Full 1080p Latino




Aportes de DPeliculasHDmega la pass es:dpeliculashdmega.org Aportes de CinemaniaHD la pass es:cinemaniahdd.com

Películas relacionadas

Comentarios 1