El buen hijo (1993) Full 1080p Latino

985 vistas
1 estrella2 estrellas3 estrellas4 estrellas5 estrellas (4 votos, promedio: 4,00 de 5)
Cargando…

Información de El buen hijo (1993) Full 1080p Latino

Datos de la película

  • Calidad: Full 1080p
  • Audio: Español Latino AC3 2.0 DVD - Ingles DTS 5.1 BLURAY
  • Subtitulos: Español Latino PGS - Ingles PGS
  • Resolución: 1920x1080p
  • Formato: MKV
  • Codec: H.264
  • Encoder: Dracarys
  • Mediainfo: Clic para Mostrar Datos Ver
  • Format                                   : Matroska
    Format version                           : Version 4 / Version 2
    File size                                : 8.47 GiB
    Duration                                 : 1 h 27 min
    Overall bit rate                         : 13.9 Mb/s
    Movie name                               : CinemaniaHDD.com
    Encoded date                             : UTC 2018-05-08 22:11:58 / UTC 2018-05-04T06:41:32Z
    Writing application                      : mkvmerge v15.0.0 ('Duel with the Devil') 64-bit
    Writing library                          : libebml v1.3.5 + libmatroska v1.4.5 / Lavf57.7.2

    Video
    ID                                       : 1
    Format                                   : AVC
    Format/Info                              : Advanced Video Codec
    Format profile                           : High@L4.1
    Format settings                          : CABAC / 4 Ref Frames
    Format settings, CABAC                   : Yes
    Format settings, RefFrames               : 4 frames
    Codec ID                                 : V_MPEG4/ISO/AVC
    Duration                                 : 1 h 27 min
    Bit rate                                 : 12.0 Mb/s
    Width                                    : 1 920 pixels
    Height                                   : 1 080 pixels
    Display aspect ratio                     : 16:9
    Frame rate mode                          : Constant
    Frame rate                               : 23.976 (24000/1001) FPS
    Color space                              : YUV
    Chroma subsampling                       : 4:2:0
    Bit depth                                : 8 bits
    Scan type                                : Progressive
    Bits/(Pixel*Frame)                       : 0.240
    Stream size                              : 7.27 GiB (86%)
    Title                                    : El buen hijo (1993) Full 1080p Latino
    Writing library                          : x264 core 148 r2708 86b7198
    Encoding settings                        : cabac=1 / ref=4 / deblock=1:0:0 / analyse=0x3:0x133 / me=esa / subme=10 / psy=1 / psy_rd=1.00:0.00 / mixed_ref=1 / me_range=24 / chroma_me=1 / trellis=2 / 8x8dct=1 / cqm=0 / deadzone=21,11 / fast_pskip=1 / chroma_qp_offset=-2 / threads=34 / lookahead_threads=5 / sliced_threads=0 / nr=0 / decimate=1 / interlaced=0 / bluray_compat=0 / constrained_intra=0 / bframes=8 / b_pyramid=2 / b_adapt=2 / b_bias=0 / direct=3 / weightb=1 / open_gop=0 / weightp=2 / keyint=240 / keyint_min=24 / scenecut=40 / intra_refresh=0 / rc_lookahead=60 / rc=crf / mbtree=1 / crf=20.0 / qcomp=0.60 / qpmin=0 / qpmax=69 / qpstep=4 / vbv_maxrate=62500 / vbv_bufsize=78125 / crf_max=0.0 / nal_hrd=none / filler=0 / ip_ratio=1.40 / aq=1:1.00
    Language                                 : English
    Default                                  : Yes
    Forced                                   : No
    Color range                              : Limited
    Color primaries                          : BT.709
    Transfer characteristics                 : BT.709
    Matrix coefficients                      : BT.709
    Statistics Tags Issue                    : mkvmerge v15.0.0 ('Duel with the Devil') 64-bit 2018-05-08 22:11:58 / mkvmerge v15.0.0 ('Duel with the Devil') 64-bit 2018-05-08 22:11:58 / UTC 2018-05-04T06:41:32Z
    FromStats_BitRate                        : 12206530
    FromStats_Duration                       : 01:27:01.216000000
    FromStats_FrameCount                     : 125184
    FromStats_StreamSize                     : 7966616828

    Audio #1
    ID                                       : 2
    Format                                   : AC-3
    Format/Info                              : Audio Coding 3
    Mode                                     : Dolby Digital
    Format settings, Endianness              : Big
    Codec ID                                 : A_AC3
    Duration                                 : 1 h 27 min
    Bit rate mode                            : Constant
    Bit rate                                 : 192 kb/s
    Channel(s)                               : 2 channels
    Channel positions                        : Front: L R
    Sampling rate                            : 48.0 kHz
    Frame rate                               : 31.250 FPS (1536 SPF)
    Bit depth                                : 16 bits
    Compression mode                         : Lossy
    Delay relative to video                  : 10 s 500 ms
    Stream size                              : 120 MiB (1%)
    Language                                 : Spanish
    Service kind                             : Complete Main
    Default                                  : Yes
    Forced                                   : No
    Statistics Tags Issue                    : mkvmerge v15.0.0 ('Duel with the Devil') 64-bit 2018-05-08 22:11:58 / mkvmerge v15.0.0 ('Duel with the Devil') 64-bit 2018-05-08 22:11:58 / UTC 2018-05-04T06:41:32Z
    FromStats_BitRate                        : 192000
    FromStats_Duration                       : 01:26:48.864000000
    FromStats_FrameCount                     : 162777
    FromStats_StreamSize                     : 125012736

    Audio #2
    ID                                       : 3
    Format                                   : DTS
    Format/Info                              : Digital Theater Systems
    Mode                                     : 16
    Format settings, Endianness              : Big
    Codec ID                                 : A_DTS
    Duration                                 : 1 h 27 min
    Bit rate mode                            : Constant
    Bit rate                                 : 1 509 kb/s
    Channel(s)                               : 2 channels
    Channel positions                        : Front: L R
    Sampling rate                            : 48.0 kHz
    Frame rate                               : 93.750 FPS (512 SPF)
    Bit depth                                : 16 bits
    Compression mode                         : Lossy
    Delay relative to video                  : 11 s 11 ms
    Stream size                              : 939 MiB (11%)
    Language                                 : English
    Default                                  : No
    Forced                                   : No
    Statistics Tags Issue                    : mkvmerge v15.0.0 ('Duel with the Devil') 64-bit 2018-05-08 22:11:58 / mkvmerge v15.0.0 ('Duel with the Devil') 64-bit 2018-05-08 22:11:58 / UTC 2018-05-04T06:41:32Z
    FromStats_BitRate                        : 1508999
    FromStats_Duration                       : 01:26:50.198000000
    FromStats_FrameCount                     : 488456
    FromStats_StreamSize                     : 982773472

    Text #1
    ID                                       : 4
    Format                                   : PGS
    Muxing mode                              : zlib
    Codec ID                                 : S_HDMV/PGS
    Codec ID/Info                            : Picture based subtitle format used on BDs/HD-DVDs
    Language                                 : Spanish
    Default                                  : No
    Forced                                   : No
    Statistics Tags Issue                    : mkvmerge v15.0.0 ('Duel with the Devil') 64-bit 2018-05-08 22:11:58 / mkvmerge v15.0.0 ('Duel with the Devil') 64-bit 2018-05-08 22:11:58 / UTC 2018-05-04T06:41:32Z
    FromStats_BitRate                        : 35152
    FromStats_Duration                       : 01:20:00.634000000
    FromStats_FrameCount                     : 1376
    FromStats_StreamSize                     : 21094494

    Text #2
    ID                                       : 5
    Format                                   : PGS
    Muxing mode                              : zlib
    Codec ID                                 : S_HDMV/PGS
    Codec ID/Info                            : Picture based subtitle format used on BDs/HD-DVDs
    Language                                 : English
    Default                                  : No
    Forced                                   : No
    Statistics Tags Issue                    : mkvmerge v15.0.0 ('Duel with the Devil') 64-bit 2018-05-08 22:11:58 / mkvmerge v15.0.0 ('Duel with the Devil') 64-bit 2018-05-08 22:11:58 / UTC 2018-05-04T06:41:32Z
    FromStats_BitRate                        : 20876
    FromStats_Duration                       : 01:20:04.925000000
    FromStats_FrameCount                     : 1627
    FromStats_StreamSize                     : 12538980

    Menu
    00:00:00.000                             : :Chapter 1
    00:09:25.857                             : :Chapter 2
    00:23:51.513                             : :Chapter 3
    00:31:55.872                             : :Chapter 4
    00:44:26.789                             : :Chapter 5
    00:58:05.941                             : :Chapter 6
    01:08:39.032                             : :Chapter 7
    01:15:22.476                             : :Chapter 8

  • Peso: 8.47 GiB

Sinopsis

Henry Evans es un niño tan modélico que sus padres tienen razones de sobra para sentirse orgullosos de él. Sin embargo, bajo su apariencia cariñosa y apacible se esconde una mente retorcida y poblada de ideas malignas. Sólo otro niño podría darse cuenta de ello; y eso es lo que ocurre cuando su primo Mark, tras la muerte de su madre, se traslada a vivir con los Evans.

Ficha técnica

Video trailer de la película

Enlaces de descarga

Rip de Bluray

Descargar El buen hijo (1993) Full 1080p Latino




Aportes de DPeliculasHDmega la pass es:dpeliculashdmega.org Aportes de CinemaniaHD la pass es:cinemaniahdd.com

Películas relacionadas

Comentarios 0