Edward Scissorhands (1990) Full 1080p Latino | CinemaniaHD - Descargar Peliculas 1080p Mega Google Drive

Edward Scissorhands (1990) Full 1080p Latino

1.313 vistas
1 estrella2 estrellas3 estrellas4 estrellas5 estrellas (2 votos, promedio: 3,00 de 5)
Cargando…

Información de Edward Scissorhands (1990) Full 1080p Latino

Datos de la película

  • Calidad: Full 1080p
  • Audio: Español Latino AC3 2.0 BLURAY - Ingles DTS 5.1 BLURAY
  • Subtitulos: Español Latino PGS - Ingles PGS
  • Resolución: 1920x1080p
  • Formato: MKV
  • Codec: H.264
  • Encoder: Dracarys
  • Mediainfo: Clic para Mostrar Datos Ver
  • Format                                   : Matroska
    Format version                           : Version 4 / Version 2
    File size                                : 13.1 GiB
    Duration                                 : 1 h 45 min
    Overall bit rate                         : 17.8 Mb/s
    Movie name                               : CinemaniaHDD.com
    Encoded date                             : UTC 2018-03-22 21:16:25 / UTC 2018-03-21T08:36:36Z
    Writing application                      : mkvmerge v15.0.0 ('Duel with the Devil') 64-bit
    Writing library                          : libebml v1.3.5 + libmatroska v1.4.5 / Lavf57.7.2

    Video
    ID                                       : 1
    Format                                   : AVC
    Format/Info                              : Advanced Video Codec
    Format profile                           : High@L4.1
    Format settings                          : CABAC / 4 Ref Frames
    Format settings, CABAC                   : Yes
    Format settings, RefFrames               : 4 frames
    Codec ID                                 : V_MPEG4/ISO/AVC
    Duration                                 : 1 h 45 min
    Bit rate                                 : 15.8 Mb/s
    Width                                    : 1 920 pixels
    Height                                   : 1 080 pixels
    Display aspect ratio                     : 16:9
    Frame rate mode                          : Constant
    Frame rate                               : 23.976 (24000/1001) FPS
    Color space                              : YUV
    Chroma subsampling                       : 4:2:0
    Bit depth                                : 8 bits
    Scan type                                : Progressive
    Bits/(Pixel*Frame)                       : 0.317
    Stream size                              : 11.6 GiB (88%)
    Title                                    : Edward Scissorhands (1990) Full 1080p Latino
    Writing library                          : x264 core 148 r2708 86b7198
    Encoding settings                        : cabac=1 / ref=4 / deblock=1:0:0 / analyse=0x3:0x133 / me=esa / subme=9 / psy=1 / psy_rd=1.00:0.00 / mixed_ref=1 / me_range=16 / chroma_me=1 / trellis=2 / 8x8dct=1 / cqm=0 / deadzone=21,11 / fast_pskip=1 / chroma_qp_offset=-2 / threads=34 / lookahead_threads=2 / sliced_threads=0 / nr=0 / decimate=1 / interlaced=0 / bluray_compat=0 / constrained_intra=0 / bframes=3 / b_pyramid=2 / b_adapt=2 / b_bias=0 / direct=3 / weightb=1 / open_gop=0 / weightp=2 / keyint=240 / keyint_min=24 / scenecut=40 / intra_refresh=0 / rc_lookahead=60 / rc=crf / mbtree=1 / crf=20.0 / qcomp=0.60 / qpmin=0 / qpmax=69 / qpstep=4 / vbv_maxrate=62500 / vbv_bufsize=78125 / crf_max=0.0 / nal_hrd=none / filler=0 / ip_ratio=1.40 / aq=1:1.00
    Language                                 : English
    Default                                  : Yes
    Forced                                   : No
    Color range                              : Limited
    Color primaries                          : BT.709
    Transfer characteristics                 : BT.709
    Matrix coefficients                      : BT.709
    Statistics Tags Issue                    : mkvmerge v15.0.0 ('Duel with the Devil') 64-bit 2018-03-22 21:16:25 / mkvmerge v15.0.0 ('Duel with the Devil') 64-bit 2018-03-22 21:16:25 / UTC 2018-03-21T08:36:36Z
    FromStats_BitRate                        : 16076594
    FromStats_Duration                       : 01:45:00.711000000
    FromStats_FrameCount                     : 151066
    FromStats_StreamSize                     : 12661747065

    Audio #1
    ID                                       : 2
    Format                                   : AC-3
    Format/Info                              : Audio Coding 3
    Mode                                     : Dolby Digital
    Format settings, Endianness              : Big
    Codec ID                                 : A_AC3
    Duration                                 : 1 h 45 min
    Bit rate mode                            : Constant
    Bit rate                                 : 192 kb/s
    Channel(s)                               : 2 channels
    Channel positions                        : Front: L R
    Sampling rate                            : 48.0 kHz
    Frame rate                               : 31.250 FPS (1536 SPF)
    Bit depth                                : 16 bits
    Compression mode                         : Lossy
    Stream size                              : 144 MiB (1%)
    Language                                 : Spanish
    Service kind                             : Complete Main
    Default                                  : No
    Forced                                   : No
    Statistics Tags Issue                    : mkvmerge v15.0.0 ('Duel with the Devil') 64-bit 2018-03-22 21:16:25 / mkvmerge v15.0.0 ('Duel with the Devil') 64-bit 2018-03-22 21:16:25 / UTC 2018-03-21T08:36:36Z
    FromStats_BitRate                        : 192000
    FromStats_Duration                       : 01:45:00.768000000
    FromStats_FrameCount                     : 196899
    FromStats_StreamSize                     : 151218432

    Audio #2
    ID                                       : 3
    Format                                   : DTS
    Format/Info                              : Digital Theater Systems
    Mode                                     : 16
    Format settings, Endianness              : Big
    Codec ID                                 : A_DTS
    Duration                                 : 1 h 45 min
    Bit rate mode                            : Constant
    Bit rate                                 : 1 509 kb/s
    Channel(s)                               : 4 channels
    Channel positions                        : Front: L C R, Back: C
    Sampling rate                            : 48.0 kHz
    Frame rate                               : 93.750 FPS (512 SPF)
    Bit depth                                : 24 bits
    Compression mode                         : Lossy
    Stream size                              : 1.11 GiB (8%)
    Language                                 : English
    Default                                  : Yes
    Forced                                   : No
    Statistics Tags Issue                    : mkvmerge v15.0.0 ('Duel with the Devil') 64-bit 2018-03-22 21:16:25 / mkvmerge v15.0.0 ('Duel with the Devil') 64-bit 2018-03-22 21:16:25 / UTC 2018-03-21T08:36:36Z
    FromStats_BitRate                        : 1508999
    FromStats_Duration                       : 01:45:00.747000000
    FromStats_FrameCount                     : 590695
    FromStats_StreamSize                     : 1188478340

    Text #1
    ID                                       : 4
    Format                                   : PGS
    Muxing mode                              : zlib
    Codec ID                                 : S_HDMV/PGS
    Codec ID/Info                            : Picture based subtitle format used on BDs/HD-DVDs
    Language                                 : English
    Default                                  : No
    Forced                                   : No
    Statistics Tags Issue                    : mkvmerge v15.0.0 ('Duel with the Devil') 64-bit 2018-03-22 21:16:25 / mkvmerge v15.0.0 ('Duel with the Devil') 64-bit 2018-03-22 21:16:25 / UTC 2018-03-21T08:36:36Z
    FromStats_BitRate                        : 53141
    FromStats_Duration                       : 01:36:01.381000000
    FromStats_FrameCount                     : 2068
    FromStats_StreamSize                     : 38270771

    Text #2
    ID                                       : 5
    Format                                   : PGS
    Muxing mode                              : zlib
    Codec ID                                 : S_HDMV/PGS
    Codec ID/Info                            : Picture based subtitle format used on BDs/HD-DVDs
    Language                                 : Spanish
    Default                                  : No
    Forced                                   : No
    Statistics Tags Issue                    : mkvmerge v15.0.0 ('Duel with the Devil') 64-bit 2018-03-22 21:16:25 / mkvmerge v15.0.0 ('Duel with the Devil') 64-bit 2018-03-22 21:16:25 / UTC 2018-03-21T08:36:36Z
    FromStats_BitRate                        : 26722
    FromStats_Duration                       : 01:41:53.148000000
    FromStats_FrameCount                     : 1880
    FromStats_StreamSize                     : 20419545

    Menu
    00:00:00.000                             : :Chapter 1
    00:02:44.956                             : :Chapter 2
    00:05:18.109                             : :Chapter 3
    00:12:24.619                             : :Chapter 4
    00:16:35.620                             : :Chapter 5
    00:28:31.501                             : :Chapter 6
    00:31:26.301                             : :Chapter 7
    00:33:28.256                             : :Chapter 8
    00:35:28.668                             : :Chapter 9
    00:38:14.876                             : :Chapter 10
    00:39:47.677                             : :Chapter 11
    00:45:03.409                             : :Chapter 12
    00:47:37.855                             : :Chapter 13
    00:54:37.566                             : :Chapter 14
    00:56:56.538                             : :Chapter 15
    01:01:17.799                             : :Chapter 16
    01:04:39.042                             : :Chapter 17
    01:09:21.449                             : :Chapter 18
    01:15:50.337                             : :Chapter 19
    01:19:04.156                             : :Chapter 20
    01:24:56.633                             : :Chapter 21
    01:27:05.554                             : :Chapter 22
    01:37:03.359                             : :Chapter 23
    01:39:45.813                             : :Chapter 24

  • Peso: 13.1 GiB

Sinopsis

Érase una vez… un castillo donde vivía un inventor que dedicó parte de su vida a crear una criatura perfecta a la que llamó Eduardo. Pero el inventor murió de repente y dejó incompleta su creación, ya que en vez de dedos tenía unas horribles manos con hojas de tijera. El pobre Eduardo vivía sólo en el castillo hasta que una encantadora joven, que trabajaba para la firma Avon, lo llevó a su casa junto con su familia. Pero una criatura tan especial como Eduardo no estaba preparada para vivir en una ciudad tan extravagante y falsa como Suburbia.

Ficha técnica

Video trailer de la película

Enlaces de descarga

Rip de Bluray

Descargar Edward Scissorhands (1990) Full 1080p Latino




Aportes de DPeliculasHDmega la pass es:dpeliculashdmega.org Aportes de CinemaniaHD la pass es:cinemaniahdd.com

Películas relacionadas

  • Ralph El Demoledor (2012) Full 1080p Latino

    2012
    Ralph El Demoledor (2012) Full 1080p Latino

    0.0 1h 41m 2012

    Durante décadas, Ralph ha vivido a la sombra de Repara-Félix Jr., el chico bueno de su videojuego....

    Director: Rob Dressel

    Género: Animación

    Actores: Will Deters

  • La leyenda del gigante de la montaña (2018) 1080p Latino

    2017
    La leyenda del gigante de la montaña (2018) 1080p Latino

    0.0 2h 0m 2017

    Espen "Ash Lad", un pobre hijo de granjero, se embarca en una peligrosa aventura con sus hermanos para...

    Director: Mikkel Brænne Sandemose

    Género: 1080p Portada Negra

    Actores: Vebjørn Enger

  • La jungla (2017) 1080p Latino

    2017
    La jungla (2017) 1080p Latino

    0.0 1h 55m 2017

    Cuenta la historia real de Yossi Ghinsberg, un joven aventurero que vivió para escribir un bestseller...

    Director: Greg McLean

    Género: 1080p Portada Negra

    Actores: Yasmin Kassim

  • Big Fish & Begonia (2018) NF 1080p Latino

    2016
    Big Fish & Begonia (2018) NF 1080p Latino

    0.0 1h 30m 2016

    En un universo más allá del nuestro, Chun celebra su decimosexto aniversario cumpliendo una tradición...

    Director: Zhang Chun

    Género: Animación

    Actores: Zhang Jie

Comentarios 6