Duck Duck Goose (2018) Full 1080p Latino | CinemaniaHD - Descargar Peliculas 1080p Mega Google Drive

Duck Duck Goose (2018) Full 1080p Latino

952 vistas
1 estrella2 estrellas3 estrellas4 estrellas5 estrellas (Ninguna valoración todavía)
Cargando…

Información de Duck Duck Goose (2018) Full 1080p Latino

Datos de la película

  • Calidad: Full 1080p
  • Audio: Español Latino AC3 5.1 Netflix - Ingles DTS 5.1 BLURAY
  • Subtitulos: Español Latino PGS - Ingles PGS
  • Resolución: 1920x1080p
  • Formato: MKV
  • Codec: H.264
  • Encoder: Dracarys
  • Mediainfo: Clic para Mostrar Datos Ver
  • Format                                   : Matroska
    Format version                           : Version 4 / Version 2
    File size                                : 3.53 GiB
    Duration                                 : 1 h 32 min
    Overall bit rate                         : 5 476 kb/s
    Movie name                               : CinemaniaHDD.net
    Encoded date                             : UTC 2018-07-25 05:23:54 / UTC 2018-07-24T19:11:03Z
    Writing application                      : mkvmerge v15.0.0 ('Duel with the Devil') 64-bit
    Writing library                          : libebml v1.3.5 + libmatroska v1.4.5 / Lavf57.7.2

    Video
    ID                                       : 1
    Format                                   : AVC
    Format/Info                              : Advanced Video Codec
    Format profile                           : High@L4.1
    Format settings                          : CABAC / 4 Ref Frames
    Format settings, CABAC                   : Yes
    Format settings, RefFrames               : 4 frames
    Codec ID                                 : V_MPEG4/ISO/AVC
    Duration                                 : 1 h 32 min
    Bit rate                                 : 3 474 kb/s
    Width                                    : 1 920 pixels
    Height                                   : 1 080 pixels
    Display aspect ratio                     : 16:9
    Frame rate mode                          : Constant
    Frame rate                               : 23.976 (24000/1001) FPS
    Color space                              : YUV
    Chroma subsampling                       : 4:2:0
    Bit depth                                : 8 bits
    Scan type                                : Progressive
    Bits/(Pixel*Frame)                       : 0.070
    Stream size                              : 2.24 GiB (63%)
    Title                                    : Duck Duck Goose (2018) Full 1080p Latino
    Writing library                          : x264 core 148 r2708 86b7198
    Encoding settings                        : cabac=1 / ref=4 / deblock=1:0:0 / analyse=0x3:0x133 / me=esa / subme=10 / psy=1 / psy_rd=1.00:0.00 / mixed_ref=1 / me_range=24 / chroma_me=1 / trellis=2 / 8x8dct=1 / cqm=0 / deadzone=21,11 / fast_pskip=1 / chroma_qp_offset=-2 / threads=34 / lookahead_threads=5 / sliced_threads=0 / nr=0 / decimate=1 / interlaced=0 / bluray_compat=0 / constrained_intra=0 / bframes=8 / b_pyramid=2 / b_adapt=2 / b_bias=0 / direct=3 / weightb=1 / open_gop=0 / weightp=2 / keyint=240 / keyint_min=24 / scenecut=40 / intra_refresh=0 / rc_lookahead=60 / rc=crf / mbtree=1 / crf=20.0 / qcomp=0.60 / qpmin=0 / qpmax=69 / qpstep=4 / vbv_maxrate=62500 / vbv_bufsize=78125 / crf_max=0.0 / nal_hrd=none / filler=0 / ip_ratio=1.40 / aq=1:1.00
    Language                                 : English
    Default                                  : Yes
    Forced                                   : No
    Color range                              : Limited
    Color primaries                          : BT.709
    Transfer characteristics                 : BT.709
    Matrix coefficients                      : BT.709
    Statistics Tags Issue                    : mkvmerge v15.0.0 ('Duel with the Devil') 64-bit 2018-07-25 05:23:54 / mkvmerge v15.0.0 ('Duel with the Devil') 64-bit 2018-07-25 05:23:54 / UTC 2018-07-24T19:11:03Z
    FromStats_BitRate                        : 3578911
    FromStats_Duration                       : 01:31:22.477000000
    FromStats_FrameCount                     : 131448
    FromStats_StreamSize                     : 2452662520

    Audio #1
    ID                                       : 2
    Format                                   : AC-3
    Format/Info                              : Audio Coding 3
    Format settings, Endianness              : Big
    Codec ID                                 : A_AC3
    Duration                                 : 1 h 32 min
    Bit rate mode                            : Constant
    Bit rate                                 : 384 kb/s
    Channel(s)                               : 6 channels
    Channel positions                        : Front: L C R, Side: L R, LFE
    Sampling rate                            : 48.0 kHz
    Frame rate                               : 31.250 FPS (1536 SPF)
    Bit depth                                : 16 bits
    Compression mode                         : Lossy
    Delay relative to video                  : 16 ms
    Stream size                              : 253 MiB (7%)
    Language                                 : Spanish
    Service kind                             : Complete Main
    Default                                  : Yes
    Forced                                   : No
    Statistics Tags Issue                    : mkvmerge v15.0.0 ('Duel with the Devil') 64-bit 2018-07-25 05:23:54 / mkvmerge v15.0.0 ('Duel with the Devil') 64-bit 2018-07-25 05:23:54 / UTC 2018-07-24T19:11:03Z
    FromStats_BitRate                        : 384000
    FromStats_Duration                       : 01:32:10.944000000
    FromStats_FrameCount                     : 172842
    FromStats_StreamSize                     : 265485312

    Audio #2
    ID                                       : 3
    Format                                   : DTS
    Format/Info                              : Digital Theater Systems
    Mode                                     : 16
    Format settings, Endianness              : Big
    Codec ID                                 : A_DTS
    Duration                                 : 1 h 32 min
    Bit rate mode                            : Constant
    Bit rate                                 : 1 509 kb/s
    Channel(s)                               : 6 channels
    Channel positions                        : Front: L C R, Side: L R, LFE
    Sampling rate                            : 48.0 kHz
    Frame rate                               : 93.750 FPS (512 SPF)
    Bit depth                                : 16 bits
    Compression mode                         : Lossy
    Stream size                              : 995 MiB (28%)
    Language                                 : English
    Default                                  : No
    Forced                                   : No
    Statistics Tags Issue                    : mkvmerge v15.0.0 ('Duel with the Devil') 64-bit 2018-07-25 05:23:54 / mkvmerge v15.0.0 ('Duel with the Devil') 64-bit 2018-07-25 05:23:54 / UTC 2018-07-24T19:11:03Z
    FromStats_BitRate                        : 1508999
    FromStats_Duration                       : 01:31:22.475000000
    FromStats_FrameCount                     : 513982
    FromStats_StreamSize                     : 1034131784

    Text #1
    ID                                       : 4
    Format                                   : PGS
    Muxing mode                              : zlib
    Codec ID                                 : S_HDMV/PGS
    Codec ID/Info                            : Picture based subtitle format used on BDs/HD-DVDs
    Language                                 : English
    Default                                  : No
    Forced                                   : No
    Statistics Tags Issue                    : mkvmerge v15.0.0 ('Duel with the Devil') 64-bit 2018-07-25 05:23:54 / mkvmerge v15.0.0 ('Duel with the Devil') 64-bit 2018-07-25 05:23:54 / UTC 2018-07-24T19:11:03Z
    FromStats_BitRate                        : 55050
    FromStats_Duration                       : 01:23:06.607000000
    FromStats_FrameCount                     : 2870
    FromStats_StreamSize                     : 34314306

    Text #2
    ID                                       : 5
    Format                                   : PGS
    Muxing mode                              : zlib
    Codec ID                                 : S_HDMV/PGS
    Codec ID/Info                            : Picture based subtitle format used on BDs/HD-DVDs
    Language                                 : Spanish
    Default                                  : No
    Forced                                   : No
    Statistics Tags Issue                    : mkvmerge v15.0.0 ('Duel with the Devil') 64-bit 2018-07-25 05:23:54 / mkvmerge v15.0.0 ('Duel with the Devil') 64-bit 2018-07-25 05:23:54 / UTC 2018-07-24T19:11:03Z
    FromStats_BitRate                        : 50421
    FromStats_Duration                       : 01:30:19.879000000
    FromStats_FrameCount                     : 2394
    FromStats_StreamSize                     : 34159710

    Menu
    00:00:00.000                             : :Chapter 1
    00:04:28.351                             : :Chapter 2
    00:09:52.258                             : :Chapter 3
    00:14:36.918                             : :Chapter 4
    00:22:24.885                             : :Chapter 5
    00:28:30.375                             : :Chapter 6
    00:34:29.109                             : :Chapter 7
    00:42:23.541                             : :Chapter 8
    00:48:38.165                             : :Chapter 9
    00:59:05.000                             : :Chapter 10
    01:05:32.637                             : :Chapter 11
    01:14:46.899                             : :Chapter 12

  • Peso: 3.53 GiB

Sinopsis

Peng, un ganso soltero que se niega a vivir como los demás esperan que lo haga, ayuda a dos jóvenes patitos que han emprendido una larga aventura a través de montañas, lagos y bosques de bambú.

Ficha técnica

Video trailer de la película

Enlaces de descarga

Rip de Bluray

Descargar Duck Duck Goose (2018) Full 1080p Latino




Aportes de DPeliculasHDmega la pass es:dpeliculashdmega.org Aportes de CinemaniaHD la pass es:cinemaniahdd.com

Películas relacionadas

  • La leyenda del gigante de la montaña (2018) 1080p Latino

    2017
    La leyenda del gigante de la montaña (2018) 1080p Latino

    0.0 2h 0m 2017

    Espen "Ash Lad", un pobre hijo de granjero, se embarca en una peligrosa aventura con sus hermanos para...

    Director: Mikkel Brænne Sandemose

    Género: 1080p Portada Negra

    Actores: Vebjørn Enger

  • La jungla (2017) 1080p Latino

    2017
    La jungla (2017) 1080p Latino

    0.0 1h 55m 2017

    Cuenta la historia real de Yossi Ghinsberg, un joven aventurero que vivió para escribir un bestseller...

    Director: Greg McLean

    Género: 1080p Portada Negra

    Actores: Yasmin Kassim

  • Big Fish & Begonia (2018) NF 1080p Latino

    2016
    Big Fish & Begonia (2018) NF 1080p Latino

    0.0 1h 30m 2016

    En un universo más allá del nuestro, Chun celebra su decimosexto aniversario cumpliendo una tradición...

    Director: Zhang Chun

    Género: Animación

    Actores: Zhang Jie

Comentarios 0