Dos extraños amantes (1977) Full 1080p Latino

557 vistas
1 estrella2 estrellas3 estrellas4 estrellas5 estrellas (Ninguna valoración todavía)
Cargando…

Información de Dos extraños amantes (1977) Full 1080p Latino

Datos de la película

  • Calidad: Full 1080p
  • Audio: Se especifica abajo de la Sinopsis
  • Subtitulos: Español Latino PGS - Ingles PGS
  • Resolución: 1920x1080p
  • Formato: MKV
  • Codec: H.264
  • Encoder: Dracarys
  • Mediainfo: Clic para Mostrar Datos Ver
  • Format                                   : Matroska
    Format version                           : Version 4 / Version 2
    File size                                : 9.76 GiB
    Duration                                 : 1 h 33 min
    Overall bit rate                         : 15.0 Mb/s
    Movie name                               : CinemaniaHDD.com
    Encoded date                             : UTC 2018-05-16 21:34:20 / UTC 2018-05-16T03:58:02Z
    Writing application                      : mkvmerge v15.0.0 ('Duel with the Devil') 64-bit
    Writing library                          : libebml v1.3.5 + libmatroska v1.4.5 / Lavf57.7.2

    Video
    ID                                       : 1
    Format                                   : AVC
    Format/Info                              : Advanced Video Codec
    Format profile                           : High@L4.1
    Format settings                          : CABAC / 4 Ref Frames
    Format settings, CABAC                   : Yes
    Format settings, RefFrames               : 4 frames
    Codec ID                                 : V_MPEG4/ISO/AVC
    Duration                                 : 1 h 33 min
    Bit rate                                 : 12.9 Mb/s
    Width                                    : 1 920 pixels
    Height                                   : 1 080 pixels
    Display aspect ratio                     : 16:9
    Frame rate mode                          : Constant
    Frame rate                               : 23.976 (24000/1001) FPS
    Color space                              : YUV
    Chroma subsampling                       : 4:2:0
    Bit depth                                : 8 bits
    Scan type                                : Progressive
    Bits/(Pixel*Frame)                       : 0.260
    Stream size                              : 8.44 GiB (86%)
    Title                                    : Dos extraños amantes (1977) Full 1080p Latino
    Writing library                          : x264 core 148 r2708 86b7198
    Encoding settings                        : cabac=1 / ref=4 / deblock=1:0:0 / analyse=0x3:0x133 / me=esa / subme=9 / psy=1 / psy_rd=1.00:0.00 / mixed_ref=1 / me_range=16 / chroma_me=1 / trellis=2 / 8x8dct=1 / cqm=0 / deadzone=21,11 / fast_pskip=1 / chroma_qp_offset=-2 / threads=34 / lookahead_threads=2 / sliced_threads=0 / nr=0 / decimate=1 / interlaced=0 / bluray_compat=0 / constrained_intra=0 / bframes=3 / b_pyramid=2 / b_adapt=2 / b_bias=0 / direct=3 / weightb=1 / open_gop=0 / weightp=2 / keyint=240 / keyint_min=24 / scenecut=40 / intra_refresh=0 / rc_lookahead=60 / rc=crf / mbtree=1 / crf=20.0 / qcomp=0.60 / qpmin=0 / qpmax=69 / qpstep=4 / vbv_maxrate=62500 / vbv_bufsize=78125 / crf_max=0.0 / nal_hrd=none / filler=0 / ip_ratio=1.40 / aq=1:1.00
    Language                                 : English
    Default                                  : Yes
    Forced                                   : No
    Color range                              : Limited
    Color primaries                          : BT.709
    Transfer characteristics                 : BT.709
    Matrix coefficients                      : BT.709
    Statistics Tags Issue                    : mkvmerge v15.0.0 ('Duel with the Devil') 64-bit 2018-05-16 21:34:20 / mkvmerge v15.0.0 ('Duel with the Devil') 64-bit 2018-05-16 21:34:20 / UTC 2018-05-16T03:58:02Z
    FromStats_BitRate                        : 13185986
    FromStats_Duration                       : 01:33:23.640000000
    FromStats_FrameCount                     : 134353
    FromStats_StreamSize                     : 9236189934

    Audio #1
    ID                                       : 2
    Format                                   : AC-3
    Format/Info                              : Audio Coding 3
    Format settings, Endianness              : Big
    Codec ID                                 : A_AC3
    Duration                                 : 1 h 33 min
    Bit rate mode                            : Constant
    Bit rate                                 : 224 kb/s
    Channel(s)                               : 2 channels
    Channel positions                        : Front: L R
    Sampling rate                            : 48.0 kHz
    Frame rate                               : 31.250 FPS (1536 SPF)
    Bit depth                                : 16 bits
    Compression mode                         : Lossy
    Stream size                              : 150 MiB (1%)
    Language                                 : Spanish
    Service kind                             : Complete Main
    Default                                  : Yes
    Forced                                   : No
    Statistics Tags Issue                    : mkvmerge v15.0.0 ('Duel with the Devil') 64-bit 2018-05-16 21:34:20 / mkvmerge v15.0.0 ('Duel with the Devil') 64-bit 2018-05-16 21:34:20 / UTC 2018-05-16T03:58:02Z
    FromStats_BitRate                        : 224000
    FromStats_Duration                       : 01:33:23.648000000
    FromStats_FrameCount                     : 175114
    FromStats_StreamSize                     : 156902144

    Audio #2
    ID                                       : 3
    Format                                   : DTS
    Format/Info                              : Digital Theater Systems
    Mode                                     : 16
    Format settings, Endianness              : Big
    Codec ID                                 : A_DTS
    Duration                                 : 1 h 33 min
    Bit rate mode                            : Constant
    Bit rate                                 : 1 509 kb/s
    Channel(s)                               : 2 channels
    Channel positions                        : Front: L R
    Sampling rate                            : 48.0 kHz
    Frame rate                               : 93.750 FPS (512 SPF)
    Bit depth                                : 24 bits
    Compression mode                         : Lossy
    Stream size                              : 1 008 MiB (10%)
    Language                                 : English
    Default                                  : No
    Forced                                   : No
    Statistics Tags Issue                    : mkvmerge v15.0.0 ('Duel with the Devil') 64-bit 2018-05-16 21:34:20 / mkvmerge v15.0.0 ('Duel with the Devil') 64-bit 2018-05-16 21:34:20 / UTC 2018-05-16T03:58:02Z
    FromStats_BitRate                        : 1508999
    FromStats_Duration                       : 01:33:23.627000000
    FromStats_FrameCount                     : 525340
    FromStats_StreamSize                     : 1056984080

    Text #1
    ID                                       : 4
    Format                                   : PGS
    Muxing mode                              : zlib
    Codec ID                                 : S_HDMV/PGS
    Codec ID/Info                            : Picture based subtitle format used on BDs/HD-DVDs
    Language                                 : English
    Default                                  : No
    Forced                                   : No
    Statistics Tags Issue                    : mkvmerge v15.0.0 ('Duel with the Devil') 64-bit 2018-05-16 21:34:20 / mkvmerge v15.0.0 ('Duel with the Devil') 64-bit 2018-05-16 21:34:20 / UTC 2018-05-16T03:58:02Z
    FromStats_BitRate                        : 68118
    FromStats_Duration                       : 01:30:22.625000000
    FromStats_FrameCount                     : 3167
    FromStats_StreamSize                     : 46172668

    Text #2
    ID                                       : 5
    Format                                   : PGS
    Muxing mode                              : zlib
    Codec ID                                 : S_HDMV/PGS
    Codec ID/Info                            : Picture based subtitle format used on BDs/HD-DVDs
    Language                                 : Spanish
    Default                                  : No
    Forced                                   : No
    Statistics Tags Issue                    : mkvmerge v15.0.0 ('Duel with the Devil') 64-bit 2018-05-16 21:34:20 / mkvmerge v15.0.0 ('Duel with the Devil') 64-bit 2018-05-16 21:34:20 / UTC 2018-05-16T03:58:02Z
    FromStats_BitRate                        : 63146
    FromStats_Duration                       : 01:30:12.198000000
    FromStats_FrameCount                     : 3193
    FromStats_StreamSize                     : 42720450

    Text #3
    ID                                       : 6
    Format                                   : PGS
    Muxing mode                              : zlib
    Codec ID                                 : S_HDMV/PGS
    Codec ID/Info                            : Picture based subtitle format used on BDs/HD-DVDs
    Title                                    : Forzados
    Language                                 : Spanish
    Default                                  : Yes
    Forced                                   : Yes
    Statistics Tags Issue                    : mkvmerge v15.0.0 ('Duel with the Devil') 64-bit 2018-05-16 21:34:20 / mkvmerge v15.0.0 ('Duel with the Devil') 64-bit 2018-05-16 21:34:20 / UTC 2018-05-16T03:58:02Z
    FromStats_BitRate                        : 658
    FromStats_Duration                       : 01:25:40.844000000
    FromStats_FrameCount                     : 36
    FromStats_StreamSize                     : 423213

    Menu
    00:00:00.000                             : :Chapter 1
    00:00:57.099                             : :Chapter 2
    00:02:41.620                             : :Chapter 3
    00:04:02.993                             : :Chapter 4
    00:05:39.673                             : :Chapter 5
    00:07:23.985                             : :Chapter 6
    00:10:03.645                             : :Chapter 7
    00:14:01.591                             : :Chapter 8
    00:18:18.014                             : :Chapter 9
    00:21:13.022                             : :Chapter 10
    00:23:59.980                             : :Chapter 11
    00:29:04.952                             : :Chapter 12
    00:33:26.713                             : :Chapter 13
    00:34:24.229                             : :Chapter 14
    00:36:36.194                             : :Chapter 15
    00:37:17.610                             : :Chapter 16
    00:37:47.682                             : :Chapter 17
    00:38:43.238                             : :Chapter 18
    00:40:04.986                             : :Chapter 19
    00:42:50.902                             : :Chapter 20
    00:44:14.652                             : :Chapter 21
    00:45:42.865                             : :Chapter 22
    00:47:08.159                             : :Chapter 23
    00:49:18.497                             : :Chapter 24
    00:52:36.737                             : :Chapter 25
    00:53:54.982                             : :Chapter 26
    00:54:19.673                             : :Chapter 27
    00:55:40.254                             : :Chapter 28
    00:56:49.990                             : :Chapter 29
    01:01:19.009                             : :Chapter 30
    01:01:58.632                             : :Chapter 31
    01:02:26.618                             : :Chapter 32
    01:03:47.824                             : :Chapter 33
    01:04:28.907                             : :Chapter 34
    01:06:59.724                             : :Chapter 35
    01:09:22.450                             : :Chapter 36
    01:10:23.302                             : :Chapter 37
    01:11:50.973                             : :Chapter 38
    01:13:02.044                             : :Chapter 39
    01:15:00.496                             : :Chapter 40
    01:18:12.563                             : :Chapter 41
    01:19:12.081                             : :Chapter 42
    01:20:29.575                             : :Chapter 43
    01:22:12.386                             : :Chapter 44
    01:22:42.916                             : :Chapter 45
    01:26:04.951                             : :Chapter 46
    01:28:16.833                             : :Chapter 47
    01:29:05.215                             : :Chapter 48
    01:31:21.267                             : :Chapter 49

  • Peso: 9.76 GiB

Sinopsis

Alvy Singer, un tipo algo neurótico, trabaja como humorista en clubs nocturnos. A sus 40 años, tras romper con Annie, su última novia, reflexiona sobre su vida, rememorando sus amores, sus matrimonios, pero muy en especial su relación con Annie, a la que conoció en una cancha de tenis. Al final, llega a la conclusión de que son sus manías y obsesiones las que siempre acaban arruinando su relación con las mujeres.

 

 

Latino: AC3 2.0 Bluray – Ingles: DTS 2.0 Bluray

Ficha técnica

Video trailer de la película

Enlaces de descarga

Rip de Bluray

Descargar Dos extraños amantes (1977) Full 1080p Latino




Aportes de DPeliculasHDmega la pass es:dpeliculashdmega.org Aportes de CinemaniaHD la pass es:cinemaniahdd.com

Películas relacionadas

Comentarios 0