Doctor Zhivago (1965) Full 1080p Latino

958 vistas
1 estrella2 estrellas3 estrellas4 estrellas5 estrellas (1 votos, promedio: 5,00 de 5)
Cargando…

Información de Doctor Zhivago (1965) Full 1080p Latino

Datos de la película

  • Calidad: Full 1080p
  • Audio: Español Latino AC3 2.0 BLURAY - Ingles DTS 5.1 BLURAY
  • Subtitulos: Español Latino PGS - Ingles PGS
  • Resolución: 1920x1080p
  • Formato: MKV
  • Codec: H.264
  • Encoder: Dracarys
  • Mediainfo: Clic para Mostrar Datos Ver
  • Format                                   : Matroska
    Format version                           : Version 4 / Version 2
    File size                                : 13.3 GiB
    Duration                                 : 3 h 20 min
    Overall bit rate                         : 9 538 kb/s
    Movie name                               : CinemaniaHDD.com
    Encoded date                             : UTC 2018-05-03 22:13:47 / UTC 2018-04-22T14:24:10Z
    Writing application                      : mkvmerge v15.0.0 ('Duel with the Devil') 64-bit
    Writing library                          : libebml v1.3.5 + libmatroska v1.4.5 / Lavf57.7.2

    Video
    ID                                       : 1
    Format                                   : AVC
    Format/Info                              : Advanced Video Codec
    Format profile                           : High@L4.1
    Format settings                          : CABAC / 4 Ref Frames
    Format settings, CABAC                   : Yes
    Format settings, RefFrames               : 4 frames
    Codec ID                                 : V_MPEG4/ISO/AVC
    Duration                                 : 3 h 20 min
    Bit rate                                 : 7 647 kb/s
    Width                                    : 1 920 pixels
    Height                                   : 1 080 pixels
    Display aspect ratio                     : 16:9
    Frame rate mode                          : Constant
    Frame rate                               : 23.976 (24000/1001) FPS
    Color space                              : YUV
    Chroma subsampling                       : 4:2:0
    Bit depth                                : 8 bits
    Scan type                                : Progressive
    Bits/(Pixel*Frame)                       : 0.154
    Stream size                              : 10.7 GiB (80%)
    Title                                    : Doctor Zhivago (1965) Full 1080p Latino
    Writing library                          : x264 core 148 r2708 86b7198
    Encoding settings                        : cabac=1 / ref=4 / deblock=1:0:0 / analyse=0x3:0x133 / me=esa / subme=9 / psy=1 / psy_rd=1.00:0.00 / mixed_ref=1 / me_range=16 / chroma_me=1 / trellis=2 / 8x8dct=1 / cqm=0 / deadzone=21,11 / fast_pskip=1 / chroma_qp_offset=-2 / threads=34 / lookahead_threads=2 / sliced_threads=0 / nr=0 / decimate=1 / interlaced=0 / bluray_compat=0 / constrained_intra=0 / bframes=3 / b_pyramid=2 / b_adapt=2 / b_bias=0 / direct=3 / weightb=1 / open_gop=0 / weightp=2 / keyint=240 / keyint_min=24 / scenecut=40 / intra_refresh=0 / rc_lookahead=60 / rc=crf / mbtree=1 / crf=20.0 / qcomp=0.60 / qpmin=0 / qpmax=69 / qpstep=4 / vbv_maxrate=62500 / vbv_bufsize=78125 / crf_max=0.0 / nal_hrd=none / filler=0 / ip_ratio=1.40 / aq=1:1.00
    Default                                  : Yes
    Forced                                   : No
    Color range                              : Limited
    Color primaries                          : BT.709
    Transfer characteristics                 : BT.709
    Matrix coefficients                      : BT.709
    Statistics Tags Issue                    : mkvmerge v15.0.0 ('Duel with the Devil') 64-bit 2018-05-03 22:13:47 / mkvmerge v15.0.0 ('Duel with the Devil') 64-bit 2018-05-03 22:13:47 / UTC 2018-04-22T14:24:10Z
    FromStats_BitRate                        : 7816363
    FromStats_Duration                       : 03:20:05.160000000
    FromStats_FrameCount                     : 287836
    FromStats_StreamSize                     : 11729586222

    Audio #1
    ID                                       : 2
    Format                                   : AC-3
    Format/Info                              : Audio Coding 3
    Format settings, Endianness              : Big
    Codec ID                                 : A_AC3
    Duration                                 : 3 h 20 min
    Bit rate mode                            : Constant
    Bit rate                                 : 192 kb/s
    Channel(s)                               : 2 channels
    Channel positions                        : Front: L R
    Sampling rate                            : 48.0 kHz
    Frame rate                               : 31.250 FPS (1536 SPF)
    Bit depth                                : 16 bits
    Compression mode                         : Lossy
    Stream size                              : 275 MiB (2%)
    Language                                 : Spanish
    Service kind                             : Complete Main
    Default                                  : Yes
    Forced                                   : No
    Statistics Tags Issue                    : mkvmerge v15.0.0 ('Duel with the Devil') 64-bit 2018-05-03 22:13:47 / mkvmerge v15.0.0 ('Duel with the Devil') 64-bit 2018-05-03 22:13:47 / UTC 2018-04-22T14:24:10Z
    FromStats_BitRate                        : 192000
    FromStats_Duration                       : 03:20:05.184000000
    FromStats_FrameCount                     : 375162
    FromStats_StreamSize                     : 288124416

    Audio #2
    ID                                       : 3
    Format                                   : DTS
    Format/Info                              : Digital Theater Systems
    Mode                                     : 16
    Format settings, Endianness              : Big
    Codec ID                                 : A_DTS
    Duration                                 : 3 h 20 min
    Bit rate mode                            : Constant
    Bit rate                                 : 1 509 kb/s
    Channel(s)                               : 6 channels
    Channel positions                        : Front: L C R, Side: L R, LFE
    Sampling rate                            : 48.0 kHz
    Frame rate                               : 93.750 FPS (512 SPF)
    Bit depth                                : 24 bits
    Compression mode                         : Lossy
    Stream size                              : 2.11 GiB (16%)
    Language                                 : English
    Default                                  : No
    Forced                                   : No
    Statistics Tags Issue                    : mkvmerge v15.0.0 ('Duel with the Devil') 64-bit 2018-05-03 22:13:47 / mkvmerge v15.0.0 ('Duel with the Devil') 64-bit 2018-05-03 22:13:47 / UTC 2018-04-22T14:24:10Z
    FromStats_BitRate                        : 1509000
    FromStats_Duration                       : 03:20:05.152000000
    FromStats_FrameCount                     : 1125483
    FromStats_StreamSize                     : 2264471796

    Text #1
    ID                                       : 4
    Format                                   : PGS
    Muxing mode                              : zlib
    Codec ID                                 : S_HDMV/PGS
    Codec ID/Info                            : Picture based subtitle format used on BDs/HD-DVDs
    Language                                 : English
    Default                                  : No
    Forced                                   : No
    Statistics Tags Issue                    : mkvmerge v15.0.0 ('Duel with the Devil') 64-bit 2018-05-03 22:13:47 / mkvmerge v15.0.0 ('Duel with the Devil') 64-bit 2018-05-03 22:13:47 / UTC 2018-04-22T14:24:10Z
    FromStats_BitRate                        : 21981
    FromStats_Duration                       : 03:11:57.840000000
    FromStats_FrameCount                     : 3176
    FromStats_StreamSize                     : 31647706

    Text #2
    ID                                       : 5
    Format                                   : PGS
    Muxing mode                              : zlib
    Codec ID                                 : S_HDMV/PGS
    Codec ID/Info                            : Picture based subtitle format used on BDs/HD-DVDs
    Language                                 : Spanish
    Default                                  : No
    Forced                                   : No
    Statistics Tags Issue                    : mkvmerge v15.0.0 ('Duel with the Devil') 64-bit 2018-05-03 22:13:47 / mkvmerge v15.0.0 ('Duel with the Devil') 64-bit 2018-05-03 22:13:47 / UTC 2018-04-22T14:24:10Z
    FromStats_BitRate                        : 18223
    FromStats_Duration                       : 03:19:51.188000000
    FromStats_FrameCount                     : 2997
    FromStats_StreamSize                     : 27314973

    Menu
    00:00:00.000                             : :Chapter 1
    00:04:25.265                             : :Chapter 2
    00:07:15.435                             : :Chapter 3
    00:13:26.389                             : :Chapter 4
    00:16:38.456                             : :Chapter 5
    00:19:28.334                             : :Chapter 6
    00:21:42.051                             : :Chapter 7
    00:23:52.890                             : :Chapter 8
    00:28:01.305                             : :Chapter 9
    00:29:59.506                             : :Chapter 10
    00:33:14.075                             : :Chapter 11
    00:38:58.711                             : :Chapter 12
    00:41:05.964                             : :Chapter 13
    00:44:00.930                             : :Chapter 14
    00:47:31.807                             : :Chapter 15
    00:53:27.162                             : :Chapter 16
    00:56:50.282                             : :Chapter 17
    01:00:31.545                             : :Chapter 18
    01:03:03.905                             : :Chapter 19
    01:08:35.528                             : :Chapter 20
    01:10:57.837                             : :Chapter 21
    01:12:45.319                             : :Chapter 22
    01:16:47.812                             : :Chapter 23
    01:20:37.791                             : :Chapter 24
    01:23:03.645                             : :Chapter 25
    01:27:05.929                             : :Chapter 26
    01:30:06.526                             : :Chapter 27
    01:32:49.939                             : :Chapter 28
    01:35:13.291                             : :Chapter 29
    01:39:09.861                             : :Chapter 30
    01:41:30.793                             : :Chapter 31
    01:44:49.408                             : :Chapter 32
    01:47:40.996                             : :Chapter 33
    01:49:50.209                             : :Chapter 34
    01:53:25.382                             : :Chapter 35
    01:56:52.214                             : :Chapter 36
    01:58:41.531                             : :Chapter 37
    01:59:42.300                             : :Chapter 38
    02:01:38.291                             : :Chapter 39
    02:03:21.811                             : :Chapter 40
    02:09:04.153                             : :Chapter 41
    02:12:34.864                             : :Chapter 42
    02:15:06.473                             : :Chapter 43
    02:17:16.895                             : :Chapter 44
    02:19:59.016                             : :Chapter 45
    02:24:56.855                             : :Chapter 46
    02:30:06.873                             : :Chapter 47
    02:32:55.750                             : :Chapter 48
    02:36:21.372                             : :Chapter 49
    02:40:56.147                             : :Chapter 50
    02:45:05.354                             : :Chapter 51
    02:47:49.643                             : :Chapter 52
    02:53:30.734                             : :Chapter 53
    02:56:54.104                             : :Chapter 54
    03:03:47.517                             : :Chapter 55
    03:07:39.457                             : :Chapter 56
    03:09:42.246                             : :Chapter 57
    03:10:56.320                             : :Chapter 58
    03:14:20.357                             : :Chapter 59
    03:15:35.015                             : :Chapter 60
    03:18:18.762                             : :Chapter 61

  • Peso: 13.3 GiB

Sinopsis

Rusia, revolución bolchevique (1917). La guerra produce una convulsión general en un país dividido. En medio del conflicto, asistimos al drama íntimo de un hombre que lucha por sobrevivir. Este hombre es Zhivago, poeta y cirujano, marido y amante, cuya vida trastornada por la guerra afecta a las vidas de otros, incluida Tonya, su mujer, y Lara, la mujer de la que se enamora.

Ficha técnica

Video trailer de la película

Enlaces de descarga

Rip de Bluray

Descargar Doctor Zhivago (1965) Full 1080p Latino




Aportes de DPeliculasHDmega la pass es:dpeliculashdmega.org Aportes de CinemaniaHD la pass es:cinemaniahdd.com

Películas relacionadas

Comentarios 0