Disenchantment (2018) Primera Temporada WEB-DL 1080p Latino

1.832 vistas
1 estrella2 estrellas3 estrellas4 estrellas5 estrellas (5 votos, promedio: 4,20 de 5)
Cargando…

Información de Disenchantment (2018) Primera Temporada WEB-DL 1080p Latino

Datos de la película

  • Calidad: WEBDL
  • Audio: Español Latino AC3 5.1 Netflix - Ingles AC3 5.1 Netflix
  • Subtitulos: Español Latino SRT- FORZADOS SRT
  • Resolución: 1920x1080p
  • Formato: MKV
  • Codec: H.264
  • Encoder: NTG
  • Mediainfo: Clic para Mostrar Datos Ver
  • Format                                   : Matroska
    Format version                           : Version 4 / Version 2
    File size                                : 1.09 GiB
    Duration                                 : 28 min 6 s
    Overall bit rate mode                    : Variable
    Overall bit rate                         : 5 550 kb/s
    Movie name                               : CinemaniaHDD.net
    Encoded date                             : UTC 2018-08-18 05:59:25
    Writing application                      : mkvmerge v15.0.0 ('Duel with the Devil') 64-bit
    Writing library                          : libebml v1.3.5 + libmatroska v1.4.5

    Video
    ID                                       : 1
    Format                                   : AVC
    Format/Info                              : Advanced Video Codec
    Format profile                           : Main@L4
    Format settings                          : CABAC / 3 Ref Frames
    Format settings, CABAC                   : Yes
    Format settings, RefFrames               : 3 frames
    Codec ID                                 : V_MPEG4/ISO/AVC
    Duration                                 : 28 min 6 s
    Bit rate mode                            : Variable
    Bit rate                                 : 4 420 kb/s
    Maximum bit rate                         : 6 630 kb/s
    Width                                    : 1 920 pixels
    Height                                   : 1 080 pixels
    Display aspect ratio                     : 16:9
    Frame rate mode                          : Constant
    Frame rate                               : 23.976 (24000/1001) FPS
    Color space                              : YUV
    Chroma subsampling                       : 4:2:0
    Bit depth                                : 8 bits
    Scan type                                : Progressive
    Bits/(Pixel*Frame)                       : 0.089
    Stream size                              : 858 MiB (77%)
    Title                                    : Disenchantment (2018) S01E06 WEB-DL 1080p Latino
    Writing library                          : x264 core 148 r2715 7e75228
    Encoding settings                        : cabac=1 / ref=3 / deblock=1:0:0 / analyse=0x1:0x111 / me=umh / subme=10 / psy=1 / psy_rd=1.00:0.00 / mixed_ref=1 / me_range=24 / chroma_me=1 / trellis=2 / 8x8dct=0 / cqm=0 / deadzone=21,11 / fast_pskip=1 / chroma_qp_offset=-2 / threads=8 / lookahead_threads=1 / sliced_threads=0 / nr=0 / decimate=1 / interlaced=0 / bluray_compat=0 / stitchable=1 / constrained_intra=0 / bframes=2 / b_pyramid=0 / b_adapt=2 / b_bias=0 / direct=3 / weightb=1 / open_gop=0 / weightp=2 / keyint=48 / keyint_min=25 / scenecut=0 / intra_refresh=0 / rc_lookahead=48 / rc=2pass / mbtree=1 / bitrate=4420 / ratetol=1.0 / qcomp=0.50 / qpmin=6 / qpmax=51 / qpstep=4 / cplxblur=20.0 / qblur=0.5 / vbv_maxrate=6630 / vbv_bufsize=8840 / nal_hrd=vbr / filler=0 / ip_ratio=1.40 / aq=1:1.00
    Language                                 : English
    Default                                  : Yes
    Forced                                   : No

    Audio #1
    ID                                       : 2
    Format                                   : AC-3
    Format/Info                              : Audio Coding 3
    Format settings, Endianness              : Big
    Codec ID                                 : A_AC3
    Duration                                 : 28 min 6 s
    Bit rate mode                            : Constant
    Bit rate                                 : 640 kb/s
    Channel(s)                               : 6 channels
    Channel positions                        : Front: L C R, Side: L R, LFE
    Sampling rate                            : 48.0 kHz
    Frame rate                               : 31.250 FPS (1536 SPF)
    Bit depth                                : 16 bits
    Compression mode                         : Lossy
    Stream size                              : 129 MiB (12%)
    Language                                 : Spanish
    Service kind                             : Complete Main
    Default                                  : Yes
    Forced                                   : No

    Audio #2
    ID                                       : 3
    Format                                   : E-AC-3
    Format/Info                              : Enhanced Audio Coding 3
    Format settings, Endianness              : Big
    Codec ID                                 : A_EAC3
    Duration                                 : 28 min 6 s
    Bit rate mode                            : Constant
    Bit rate                                 : 640 kb/s
    Channel(s)                               : 6 channels
    Channel positions                        : Front: L C R, Side: L R, LFE
    Sampling rate                            : 48.0 kHz
    Frame rate                               : 187.500 FPS (256 SPF)
    Compression mode                         : Lossy
    Stream size                              : 129 MiB (12%)
    Language                                 : English
    Service kind                             : Complete Main
    Default                                  : No
    Forced                                   : No

    Text #1
    ID                                       : 4
    Format                                   : UTF-8
    Codec ID                                 : S_TEXT/UTF8
    Codec ID/Info                            : UTF-8 Plain Text
    Duration                                 : 25 min 55 s
    Bit rate                                 : 90 b/s
    Count of elements                        : 444
    Stream size                              : 17.1 KiB (0%)
    Language                                 : English
    Default                                  : No
    Forced                                   : No

    Text #2
    ID                                       : 5
    Format                                   : UTF-8
    Codec ID                                 : S_TEXT/UTF8
    Codec ID/Info                            : UTF-8 Plain Text
    Duration                                 : 26 min 57 s
    Bit rate                                 : 1 b/s
    Count of elements                        : 8
    Stream size                              : 241 Bytes (0%)
    Title                                    : Forzados
    Language                                 : Spanish
    Default                                  : Yes
    Forced                                   : Yes

    Text #3
    ID                                       : 6
    Format                                   : UTF-8
    Codec ID                                 : S_TEXT/UTF8
    Codec ID/Info                            : UTF-8 Plain Text
    Duration                                 : 26 min 57 s
    Bit rate                                 : 74 b/s
    Count of elements                        : 376
    Stream size                              : 14.7 KiB (0%)
    Language                                 : Spanish
    Default                                  : No
    Forced                                   : No

  • Peso: 1.00 GiB X Capitulo 10 total

Sinopsis

El deber llama a Bean, pero ella solo piensa en beber. La rebelde princesa enfurece al rey y siembra el caos con sus amigos, un demonio y un elfo.

Ficha técnica

Video trailer de la película

Enlaces de descarga

Rip de Bluray

Descargar Disenchantment (2018) Primera Temporada WEB-DL 1080p Latino




Aportes de DPeliculasHDmega la pass es:dpeliculashdmega.org Aportes de CinemaniaHD la pass es:cinemaniahdd.com

Películas relacionadas

Comentarios 2
  • Rxdrigx17 - 18 agosto, 2018

    Gracias por el aporte, a descargar y ver que tal 🙂

  • ATERRADO - 18 agosto, 2018

    Gracias!!!! Justo lo que queria ver