Dirty Dancing (1987) Full 1080p Latino

1.099 vistas
1 estrella2 estrellas3 estrellas4 estrellas5 estrellas (Ninguna valoración todavía)
Cargando…

Información de Dirty Dancing (1987) Full 1080p Latino

Datos de la película

  • Calidad: Full 1080p
  • Audio: Español Latino AC3 2.0 DVD - Ingles DTS 5.1 BLURAY
  • Subtitulos: Español Latino PGS - Ingles PGS
  • Resolución: 1920X1080p
  • Formato: MKV
  • Codec: H.264
  • Encoder: Dracarys
  • Mediainfo: Clic para Mostrar Datos Ver
  • Format                                   : Matroska
    Format version                           : Version 4 / Version 2
    File size                                : 8.35 GiB
    Duration                                 : 1 h 40 min
    Overall bit rate                         : 11.9 Mb/s
    Movie name                               : CinemaniaHDD.com
    Encoded date                             : UTC 2018-03-06 22:57:08 / UTC 2018-02-28T06:41:45Z
    Writing application                      : mkvmerge v15.0.0 ('Duel with the Devil') 64-bit
    Writing library                          : libebml v1.3.5 + libmatroska v1.4.5 / Lavf57.7.2

    Video
    ID                                       : 1
    Format                                   : AVC
    Format/Info                              : Advanced Video Codec
    Format profile                           : High@L4.1
    Format settings                          : CABAC / 4 Ref Frames
    Format settings, CABAC                   : Yes
    Format settings, RefFrames               : 4 frames
    Codec ID                                 : V_MPEG4/ISO/AVC
    Duration                                 : 1 h 40 min
    Bit rate                                 : 9 892 kb/s
    Width                                    : 1 920 pixels
    Height                                   : 1 080 pixels
    Display aspect ratio                     : 16:9
    Frame rate mode                          : Constant
    Frame rate                               : 24.000 FPS
    Original frame rate                      : 23.976 (24000/1001) FPS
    Color space                              : YUV
    Chroma subsampling                       : 4:2:0
    Bit depth                                : 8 bits
    Scan type                                : Progressive
    Bits/(Pixel*Frame)                       : 0.199
    Stream size                              : 6.95 GiB (83%)
    Title                                    : Dirty Dancing (1987) Full 1080p Latino
    Writing library                          : x264 core 148 r2708 86b7198
    Encoding settings                        : cabac=1 / ref=4 / deblock=1:0:0 / analyse=0x3:0x133 / me=esa / subme=10 / psy=1 / psy_rd=1.00:0.00 / mixed_ref=1 / me_range=24 / chroma_me=1 / trellis=2 / 8x8dct=1 / cqm=0 / deadzone=21,11 / fast_pskip=1 / chroma_qp_offset=-2 / threads=34 / lookahead_threads=5 / sliced_threads=0 / nr=0 / decimate=1 / interlaced=0 / bluray_compat=0 / constrained_intra=0 / bframes=8 / b_pyramid=2 / b_adapt=2 / b_bias=0 / direct=3 / weightb=1 / open_gop=0 / weightp=2 / keyint=240 / keyint_min=24 / scenecut=40 / intra_refresh=0 / rc_lookahead=60 / rc=crf / mbtree=1 / crf=20.0 / qcomp=0.60 / qpmin=0 / qpmax=69 / qpstep=4 / vbv_maxrate=62500 / vbv_bufsize=78125 / crf_max=0.0 / nal_hrd=none / filler=0 / ip_ratio=1.40 / aq=1:1.00
    Language                                 : English
    Default                                  : Yes
    Forced                                   : No
    Color range                              : Limited
    Color primaries                          : BT.709
    Transfer characteristics                 : BT.709
    Matrix coefficients                      : BT.709
    Statistics Tags Issue                    : mkvmerge v15.0.0 ('Duel with the Devil') 64-bit 2018-03-06 22:57:08 / mkvmerge v15.0.0 ('Duel with the Devil') 64-bit 2018-03-06 22:57:08 / UTC 2018-02-28T06:41:45Z
    FromStats_BitRate                        : 10122163
    FromStats_Duration                       : 01:40:25.834000000
    FromStats_FrameCount                     : 144620
    FromStats_StreamSize                     : 7624309284

    Audio #1
    ID                                       : 2
    Format                                   : AC-3
    Format/Info                              : Audio Coding 3
    Format settings, Endianness              : Big
    Codec ID                                 : A_AC3
    Duration                                 : 1 h 40 min
    Bit rate mode                            : Constant
    Bit rate                                 : 256 kb/s
    Channel(s)                               : 2 channels
    Channel positions                        : Front: L R
    Sampling rate                            : 48.0 kHz
    Frame rate                               : 31.250 FPS (1536 SPF)
    Bit depth                                : 16 bits
    Compression mode                         : Lossy
    Delay relative to video                  : 21 s 800 ms
    Stream size                              : 184 MiB (2%)
    Language                                 : Spanish
    Service kind                             : Complete Main
    Default                                  : Yes
    Forced                                   : No
    Statistics Tags Issue                    : mkvmerge v15.0.0 ('Duel with the Devil') 64-bit 2018-03-06 22:57:08 / mkvmerge v15.0.0 ('Duel with the Devil') 64-bit 2018-03-06 22:57:08 / UTC 2018-02-28T06:41:45Z
    FromStats_BitRate                        : 256000
    FromStats_Duration                       : 01:40:02.912000000
    FromStats_FrameCount                     : 187591
    FromStats_StreamSize                     : 192093184

    Audio #2
    ID                                       : 3
    Format                                   : DTS
    Format/Info                              : Digital Theater Systems
    Mode                                     : 16
    Format settings, Endianness              : Big
    Codec ID                                 : A_DTS
    Duration                                 : 1 h 40 min
    Bit rate mode                            : Constant
    Bit rate                                 : 1 509 kb/s
    Channel(s)                               : 6 channels
    Channel positions                        : Front: L C R, Side: L R, LFE
    Sampling rate                            : 48.0 kHz
    Frame rate                               : 93.750 FPS (512 SPF)
    Bit depth                                : 24 bits
    Compression mode                         : Lossy
    Stream size                              : 1.06 GiB (13%)
    Language                                 : English
    Default                                  : No
    Forced                                   : No
    Statistics Tags Issue                    : mkvmerge v15.0.0 ('Duel with the Devil') 64-bit 2018-03-06 22:57:08 / mkvmerge v15.0.0 ('Duel with the Devil') 64-bit 2018-03-06 22:57:08 / UTC 2018-02-28T06:41:45Z
    FromStats_BitRate                        : 1508999
    FromStats_Duration                       : 01:40:31.851000000
    FromStats_FrameCount                     : 565486
    FromStats_StreamSize                     : 1137757832

    Text #1
    ID                                       : 4
    Format                                   : UTF-8
    Codec ID                                 : S_TEXT/UTF8
    Codec ID/Info                            : UTF-8 Plain Text
    Title                                    : SRT
    Language                                 : Spanish
    Default                                  : No
    Forced                                   : No
    Statistics Tags Issue                    : mkvmerge v15.0.0 ('Duel with the Devil') 64-bit 2018-03-06 22:57:08 / mkvmerge v15.0.0 ('Duel with the Devil') 64-bit 2018-03-06 22:57:08 / UTC 2018-02-28T06:41:45Z
    FromStats_BitRate                        : 43
    FromStats_Duration                       : 01:35:37.334000000
    FromStats_FrameCount                     : 794
    FromStats_StreamSize                     : 30869

    Text #2
    ID                                       : 5
    Format                                   : PGS
    Muxing mode                              : zlib
    Codec ID                                 : S_HDMV/PGS
    Codec ID/Info                            : Picture based subtitle format used on BDs/HD-DVDs
    Language                                 : English
    Default                                  : No
    Forced                                   : No
    Statistics Tags Issue                    : mkvmerge v15.0.0 ('Duel with the Devil') 64-bit 2018-03-06 22:57:08 / mkvmerge v15.0.0 ('Duel with the Devil') 64-bit 2018-03-06 22:57:08 / UTC 2018-02-28T06:41:45Z
    FromStats_BitRate                        : 27209
    FromStats_Duration                       : 01:37:19.292000000
    FromStats_FrameCount                     : 1632
    FromStats_StreamSize                     : 19860753

    Text #3
    ID                                       : 6
    Format                                   : PGS
    Muxing mode                              : zlib
    Codec ID                                 : S_HDMV/PGS
    Codec ID/Info                            : Picture based subtitle format used on BDs/HD-DVDs
    Language                                 : Spanish
    Default                                  : No
    Forced                                   : No
    Statistics Tags Issue                    : mkvmerge v15.0.0 ('Duel with the Devil') 64-bit 2018-03-06 22:57:08 / mkvmerge v15.0.0 ('Duel with the Devil') 64-bit 2018-03-06 22:57:08 / UTC 2018-02-28T06:41:45Z
    FromStats_BitRate                        : 26215
    FromStats_Duration                       : 01:37:19.375000000
    FromStats_FrameCount                     : 1592
    FromStats_StreamSize                     : 19134916

    Menu
    00:00:00.000                             : :Chapter 1
    00:04:45.327                             : :Chapter 2
    00:13:30.727                             : :Chapter 3
    00:20:59.008                             : :Chapter 4
    00:25:21.395                             : :Chapter 5
    00:33:35.639                             : :Chapter 6
    00:40:17.040                             : :Chapter 7
    00:46:47.805                             : :Chapter 8
    00:50:42.498                             : :Chapter 9
    00:59:23.560                             : :Chapter 10
    01:05:53.658                             : :Chapter 11
    01:11:16.606                             : :Chapter 12
    01:15:21.308                             : :Chapter 13
    01:21:03.776                             : :Chapter 14
    01:25:54.274                             : :Chapter 15
    01:28:55.413                             : :Chapter 16

  • Peso: 8.35 GiB

Sinopsis

Johnny Castle es un experto profesor de baile y un amante consumado. Por su parte, Baby Houseman es una aburrida e inocente adolescente de 17 años. Durante el transcurso de un verano, en un balneario para clases acomodadas, el encuentro entre ambos causará más de un recelo, a causa de sus distintos orígenes sociales. Entre ambos media un abismo pero, cuando la música suena, sus cuerpos se abrazan al ritmo del dirty dancing y todos esos detalles desaparecen de repente…

Ficha técnica

Video trailer de la película

Enlaces de descarga

Rip de Bluray

Descargar Dirty Dancing (1987) Full 1080p Latino




Aportes de DPeliculasHDmega la pass es:dpeliculashdmega.org Aportes de CinemaniaHD la pass es:cinemaniahdd.com

Películas relacionadas

  • ¡Hombre al agua! (2018) 1080p Latino

    2018
    ¡Hombre al agua! (2018) 1080p Latino

    5.0 1 h 52 min 2018

    Kate es una madre soltera, trabajadora, madre de tres hijas, contratada para limpiar un yate de lujo...

    Director: Rob Greenberg

    Género: 1080p Portada Negra

    Actores: Toby Hargrave

  • Tully (2018) 1080p Latino

    2018
    Tully (2018) 1080p Latino

    0.0 1 h 35 min 2018

    La historia de una mujer con tres hijos que, incapaz de lidiar con su bebé recién nacido, contrata...

    Director: Jason Reitman

    Género: Comedia

    Actores: Stormy Ent

  • Si solo pudiera imaginar (2018) Full 1080p Latino

    2018
    Si solo pudiera imaginar (2018) Full 1080p Latino

    5.0 1 h 50 min 2018

    La historia real de la aclamada canción "I Can Only Imagine", la canción cristiana contemporánea más...

    Director: Jon Erwin

    Género: Drama

    Actores: Trace Adkins

  • El Justiciero (2014) Full 1080p Latino

    2014
    El Justiciero (2014) Full 1080p Latino

    4.0 2 h 12 min 2014

    Robert McCall, un antiguo agente de la CIA que lleva ahora una vida tranquila, abandona su retiro para...

    Director: Deirdre Horgan

    Género: Acción

    Actores: Yan Dron

Comentarios 2
  • jk2018 - 18 marzo, 2018

    desafado de audio en español

    • dpelis - 18 marzo, 2018

      podria decir el tiempo para verificar. gracias