Dios no está muerto 3 (2018) Full 1080p Latino

541 vistas
1 estrella2 estrellas3 estrellas4 estrellas5 estrellas (Ninguna valoración todavía)
Cargando…

Información de Dios no está muerto 3 (2018) Full 1080p Latino

Datos de la película

  • Calidad: Full 1080p
  • Audio: Español Latino DTS 5.1 BLURAY - Ingles DTS 5.1 BLURAY
  • Subtitulos: Español Latino PGS - Ingles PGS
  • Resolución: 1920x1080p
  • Formato: MKV
  • Codec: H.264
  • Encoder: Dracarys
  • Mediainfo: Clic para Mostrar Datos Ver
  • Format                                   : Matroska
    Format version                           : Version 4 / Version 2
    File size                                : 5.34 GiB
    Duration                                 : 1 h 46 min
    Overall bit rate                         : 7 188 kb/s
    Movie name                               : CinemaniaHDD.net
    Encoded date                             : UTC 2018-08-29 04:39:44 / UTC 2018-08-18T06:46:48Z
    Writing application                      : mkvmerge v15.0.0 ('Duel with the Devil') 64-bit
    Writing library                          : libebml v1.3.5 + libmatroska v1.4.5 / Lavf57.7.2

    Video
    ID                                       : 1
    Format                                   : AVC
    Format/Info                              : Advanced Video Codec
    Format profile                           : High@L4.1
    Format settings                          : CABAC / 4 Ref Frames
    Format settings, CABAC                   : Yes
    Format settings, RefFrames               : 4 frames
    Codec ID                                 : V_MPEG4/ISO/AVC
    Duration                                 : 1 h 46 min
    Bit rate                                 : 4 768 kb/s
    Width                                    : 1 920 pixels
    Height                                   : 1 080 pixels
    Display aspect ratio                     : 16:9
    Frame rate mode                          : Constant
    Frame rate                               : 23.976 (24000/1001) FPS
    Color space                              : YUV
    Chroma subsampling                       : 4:2:0
    Bit depth                                : 8 bits
    Scan type                                : Progressive
    Bits/(Pixel*Frame)                       : 0.096
    Stream size                              : 3.54 GiB (66%)
    Title                                    : Dios no está muerto 3 (2018) Full 1080p Latino
    Writing library                          : x264 core 148 r2708 86b7198
    Encoding settings                        : cabac=1 / ref=4 / deblock=1:0:0 / analyse=0x3:0x133 / me=esa / subme=10 / psy=1 / psy_rd=1.00:0.00 / mixed_ref=1 / me_range=24 / chroma_me=1 / trellis=2 / 8x8dct=1 / cqm=0 / deadzone=21,11 / fast_pskip=1 / chroma_qp_offset=-2 / threads=34 / lookahead_threads=5 / sliced_threads=0 / nr=0 / decimate=1 / interlaced=0 / bluray_compat=0 / constrained_intra=0 / bframes=8 / b_pyramid=2 / b_adapt=2 / b_bias=0 / direct=3 / weightb=1 / open_gop=0 / weightp=2 / keyint=240 / keyint_min=24 / scenecut=40 / intra_refresh=0 / rc_lookahead=60 / rc=crf / mbtree=1 / crf=20.0 / qcomp=0.60 / qpmin=0 / qpmax=69 / qpstep=4 / vbv_maxrate=62500 / vbv_bufsize=78125 / crf_max=0.0 / nal_hrd=none / filler=0 / ip_ratio=1.40 / aq=1:1.00
    Language                                 : English
    Default                                  : Yes
    Forced                                   : No
    Color range                              : Limited
    Color primaries                          : BT.709
    Transfer characteristics                 : BT.709
    Matrix coefficients                      : BT.709
    Statistics Tags Issue                    : mkvmerge v15.0.0 ('Duel with the Devil') 64-bit 2018-08-29 04:39:44 / mkvmerge v15.0.0 ('Duel with the Devil') 64-bit 2018-08-29 04:39:44 / UTC 2018-08-18T06:46:48Z
    FromStats_BitRate                        : 4872643
    FromStats_Duration                       : 01:46:23.961000000
    FromStats_FrameCount                     : 153062
    FromStats_StreamSize                     : 3888346090

    Audio #1
    ID                                       : 2
    Format                                   : DTS
    Format/Info                              : Digital Theater Systems
    Mode                                     : 16
    Format settings, Endianness              : Big
    Codec ID                                 : A_DTS
    Duration                                 : 1 h 46 min
    Bit rate mode                            : Constant
    Bit rate                                 : 768 kb/s
    Channel(s)                               : 6 channels
    Channel positions                        : Front: L C R, Side: L R, LFE
    Sampling rate                            : 48.0 kHz
    Frame rate                               : 93.750 FPS (512 SPF)
    Bit depth                                : 24 bits
    Compression mode                         : Lossy
    Delay relative to video                  : 53 ms
    Stream size                              : 584 MiB (11%)
    Language                                 : Spanish
    Default                                  : Yes
    Forced                                   : No
    Statistics Tags Issue                    : mkvmerge v15.0.0 ('Duel with the Devil') 64-bit 2018-08-29 04:39:44 / mkvmerge v15.0.0 ('Duel with the Devil') 64-bit 2018-08-29 04:39:44 / UTC 2018-08-18T06:46:48Z
    FromStats_BitRate                        : 767999
    FromStats_Duration                       : 01:46:23.947000000
    FromStats_FrameCount                     : 598495
    FromStats_StreamSize                     : 612858880

    Audio #2
    ID                                       : 3
    Format                                   : DTS
    Format/Info                              : Digital Theater Systems
    Mode                                     : 16
    Format settings, Endianness              : Big
    Codec ID                                 : A_DTS
    Duration                                 : 1 h 46 min
    Bit rate mode                            : Constant
    Bit rate                                 : 1 509 kb/s
    Channel(s)                               : 6 channels
    Channel positions                        : Front: L C R, Side: L R, LFE
    Sampling rate                            : 48.0 kHz
    Frame rate                               : 93.750 FPS (512 SPF)
    Bit depth                                : 24 bits
    Compression mode                         : Lossy
    Delay relative to video                  : 53 ms
    Stream size                              : 1.12 GiB (21%)
    Language                                 : English
    Default                                  : No
    Forced                                   : No
    Statistics Tags Issue                    : mkvmerge v15.0.0 ('Duel with the Devil') 64-bit 2018-08-29 04:39:44 / mkvmerge v15.0.0 ('Duel with the Devil') 64-bit 2018-08-29 04:39:44 / UTC 2018-08-18T06:46:48Z
    FromStats_BitRate                        : 1508999
    FromStats_Duration                       : 01:46:23.947000000
    FromStats_FrameCount                     : 598495
    FromStats_StreamSize                     : 1204171940

    Text #1
    ID                                       : 4
    Format                                   : PGS
    Muxing mode                              : zlib
    Codec ID                                 : S_HDMV/PGS
    Codec ID/Info                            : Picture based subtitle format used on BDs/HD-DVDs
    Language                                 : English
    Default                                  : No
    Forced                                   : No
    Statistics Tags Issue                    : mkvmerge v15.0.0 ('Duel with the Devil') 64-bit 2018-08-29 04:39:44 / mkvmerge v15.0.0 ('Duel with the Devil') 64-bit 2018-08-29 04:39:44 / UTC 2018-08-18T06:46:48Z
    FromStats_BitRate                        : 53549
    FromStats_Duration                       : 01:45:41.544000000
    FromStats_FrameCount                     : 4161
    FromStats_StreamSize                     : 42448649

    Text #2
    ID                                       : 5
    Format                                   : PGS
    Muxing mode                              : zlib
    Codec ID                                 : S_HDMV/PGS
    Codec ID/Info                            : Picture based subtitle format used on BDs/HD-DVDs
    Language                                 : Spanish
    Default                                  : No
    Forced                                   : No
    Statistics Tags Issue                    : mkvmerge v15.0.0 ('Duel with the Devil') 64-bit 2018-08-29 04:39:44 / mkvmerge v15.0.0 ('Duel with the Devil') 64-bit 2018-08-29 04:39:44 / UTC 2018-08-18T06:46:48Z
    FromStats_BitRate                        : 52719
    FromStats_Duration                       : 01:45:27.863000000
    FromStats_FrameCount                     : 3695
    FromStats_StreamSize                     : 41700306

    Menu
    00:00:00.000                             : :Chapter 1
    00:05:28.453                             : :Chapter 2
    00:10:56.739                             : :Chapter 3
    00:15:23.297                             : :Chapter 4
    00:20:53.127                             : :Chapter 5
    00:25:59.725                             : :Chapter 6
    00:31:23.131                             : :Chapter 7
    00:36:24.766                             : :Chapter 8
    00:42:10.862                             : :Chapter 9
    00:46:07.265                             : :Chapter 10
    00:51:20.995                             : :Chapter 11
    00:57:00.834                             : :Chapter 12
    01:01:52.751                             : :Chapter 13
    01:07:40.848                             : :Chapter 14
    01:12:32.640                             : :Chapter 15
    01:18:41.508                             : :Chapter 16
    01:24:21.723                             : :Chapter 17
    01:29:52.095                             : :Chapter 18
    01:36:44.173                             : :Chapter 19
    01:41:20.157                             : :Chapter 20

  • Peso: 5.34 GiB

Sinopsis

Después de que su iglesia termine pasto de las llamas de un incendio, un pastor religioso pide asesoramiento legal a su hermano, un abogado ateo de la gran ciudad con quien hací­a mucho que no se relacionaba.

Ficha técnica

  • Titulo original: God's Not Dead: A Light in Darkness
  • Fecha de lanzamiento: 30-03-2018 (United States of America)
  • Director: Michael Mason
  • Género: Drama, FULL 1080p Plateadas
  • Puntuación: 0.0 0 votos
  • Duración:
    1h 45m

Video trailer de la película

Enlaces de descarga

Rip de Bluray

Descargar Dios no está muerto 3 (2018) Full 1080p Latino




Aportes de DPeliculasHDmega la pass es:dpeliculashdmega.org Aportes de CinemaniaHD la pass es:cinemaniahdd.com
Guardado en : Drama , FULL 1080p Plateadas

Películas relacionadas

  • Fahrenheit 451 (2018) 1080p Latino

    2018
    Fahrenheit 451 (2018) 1080p Latino

    0.0 1h 36m 2018

    Michael B. Jordan y Michael Shannon protagonizan esta adaptación de HBO de la clásica novela distópica...

    Director: Ramin Bahrani

    Género: 1080p Portada Negra

    Actores: Tim Post

  • Mary Poppins (1964) Full 1080p Latino

    1964
    Mary Poppins (1964) Full 1080p Latino

    5.0 2h 19m 1964

    Reinado de Eduardo VII (1901-1910). Una familia inglesa formada por un padre banquero, una madre sufraguista...

    Director: Robert Stevenson

    Género: Comedia

    Actores: Reta Shaw

  • Siberia (2018) Full 1080p Subtitulado

    2018
    Siberia (2018) Full 1080p Subtitulado

    0.0 1h 44m 2018

    Cuando el socio ruso de un tratante de diamantes norteamericano (Keanu Reaves) desaparece, éste viaja...

    Director: Matthew Ross

    Género: Crimen

    Actores: Vladimir Shklyar

  • Los elegidos de la gloria (1983) Full 1080p Latino

    1983
    Los elegidos de la gloria (1983) Full 1080p Latino

    5.0 3 h 12 min 1983

    El libro de Tom Wolfe sobre la historia del programa espacial de los Estados Unidos, se lee como si fuera...

    Director: Philip Kaufman

    Género: Drama

    Actores: William Russ

Comentarios 0