Daphne & Velma (2018) Full 1080p Latino

1.183 vistas
1 estrella2 estrellas3 estrellas4 estrellas5 estrellas (2 votos, promedio: 5,00 de 5)
Cargando…

Información de Daphne & Velma (2018) Full 1080p Latino

Datos de la película

  • Calidad: Full 1080p
  • Audio: Español Latino AC3 5.1 BLURAY - Ingles DTS 5.1 BLURAY
  • Subtitulos: Español Latino PGS - Ingles PGS
  • Resolución: 1920x1080p
  • Formato: MKV
  • Codec: H.264
  • Encoder: Dracarys
  • Mediainfo: Clic para Mostrar Datos Ver
  • Format                                   : Matroska
    Format version                           : Version 4 / Version 2
    File size                                : 4.15 GiB
    Duration                                 : 1 h 15 min
    Overall bit rate                         : 7 900 kb/s
    Movie name                               : CinemaniaHDD.net
    Encoded date                             : UTC 2018-05-23 21:22:33 / UTC 2018-05-23T17:56:22Z
    Writing application                      : mkvmerge v15.0.0 ('Duel with the Devil') 64-bit
    Writing library                          : libebml v1.3.5 + libmatroska v1.4.5 / Lavf57.7.2

    Video
    ID                                       : 1
    Format                                   : AVC
    Format/Info                              : Advanced Video Codec
    Format profile                           : High@L4.1
    Format settings                          : CABAC / 4 Ref Frames
    Format settings, CABAC                   : Yes
    Format settings, RefFrames               : 4 frames
    Codec ID                                 : V_MPEG4/ISO/AVC
    Duration                                 : 1 h 15 min
    Bit rate                                 : 5 594 kb/s
    Width                                    : 1 920 pixels
    Height                                   : 1 080 pixels
    Display aspect ratio                     : 16:9
    Frame rate mode                          : Constant
    Frame rate                               : 23.976 (24000/1001) FPS
    Color space                              : YUV
    Chroma subsampling                       : 4:2:0
    Bit depth                                : 8 bits
    Scan type                                : Progressive
    Bits/(Pixel*Frame)                       : 0.113
    Stream size                              : 2.94 GiB (71%)
    Title                                    : Daphne & Velma (2018) Full 1080p Latino
    Writing library                          : x264 core 148 r2708 86b7198
    Encoding settings                        : cabac=1 / ref=4 / deblock=1:0:0 / analyse=0x3:0x133 / me=esa / subme=9 / psy=1 / psy_rd=1.00:0.00 / mixed_ref=1 / me_range=16 / chroma_me=1 / trellis=2 / 8x8dct=1 / cqm=0 / deadzone=21,11 / fast_pskip=1 / chroma_qp_offset=-2 / threads=34 / lookahead_threads=2 / sliced_threads=0 / nr=0 / decimate=1 / interlaced=0 / bluray_compat=0 / constrained_intra=0 / bframes=3 / b_pyramid=2 / b_adapt=2 / b_bias=0 / direct=3 / weightb=1 / open_gop=0 / weightp=2 / keyint=240 / keyint_min=24 / scenecut=40 / intra_refresh=0 / rc_lookahead=60 / rc=crf / mbtree=1 / crf=20.0 / qcomp=0.60 / qpmin=0 / qpmax=69 / qpstep=4 / vbv_maxrate=62500 / vbv_bufsize=78125 / crf_max=0.0 / nal_hrd=none / filler=0 / ip_ratio=1.40 / aq=1:1.00
    Language                                 : English
    Default                                  : Yes
    Forced                                   : No
    Color range                              : Limited
    Color primaries                          : BT.709
    Transfer characteristics                 : BT.709
    Matrix coefficients                      : BT.709
    Statistics Tags Issue                    : mkvmerge v15.0.0 ('Duel with the Devil') 64-bit 2018-05-23 21:22:33 / mkvmerge v15.0.0 ('Duel with the Devil') 64-bit 2018-05-23 21:22:33 / UTC 2018-05-23T17:56:22Z
    FromStats_BitRate                        : 5717046
    FromStats_Duration                       : 01:15:12.175000000
    FromStats_FrameCount                     : 108184
    FromStats_StreamSize                     : 3224539530

    Audio #1
    ID                                       : 2
    Format                                   : AC-3
    Format/Info                              : Audio Coding 3
    Format settings, Endianness              : Big
    Codec ID                                 : A_AC3
    Duration                                 : 1 h 15 min
    Bit rate mode                            : Constant
    Bit rate                                 : 640 kb/s
    Channel(s)                               : 6 channels
    Channel positions                        : Front: L C R, Side: L R, LFE
    Sampling rate                            : 48.0 kHz
    Frame rate                               : 31.250 FPS (1536 SPF)
    Bit depth                                : 16 bits
    Compression mode                         : Lossy
    Stream size                              : 344 MiB (8%)
    Language                                 : Spanish
    Service kind                             : Complete Main
    Default                                  : Yes
    Forced                                   : No
    Statistics Tags Issue                    : mkvmerge v15.0.0 ('Duel with the Devil') 64-bit 2018-05-23 21:22:33 / mkvmerge v15.0.0 ('Duel with the Devil') 64-bit 2018-05-23 21:22:33 / UTC 2018-05-23T17:56:22Z
    FromStats_BitRate                        : 640000
    FromStats_Duration                       : 01:15:12.192000000
    FromStats_FrameCount                     : 141006
    FromStats_StreamSize                     : 360975360

    Audio #2
    ID                                       : 3
    Format                                   : DTS
    Format/Info                              : Digital Theater Systems
    Mode                                     : 16
    Format settings, Endianness              : Big
    Codec ID                                 : A_DTS
    Duration                                 : 1 h 15 min
    Bit rate mode                            : Constant
    Bit rate                                 : 1 509 kb/s
    Channel(s)                               : 6 channels
    Channel positions                        : Front: L C R, Side: L R, LFE
    Sampling rate                            : 48.0 kHz
    Frame rate                               : 93.750 FPS (512 SPF)
    Bit depth                                : 24 bits
    Compression mode                         : Lossy
    Stream size                              : 812 MiB (19%)
    Language                                 : English
    Default                                  : No
    Forced                                   : No
    Statistics Tags Issue                    : mkvmerge v15.0.0 ('Duel with the Devil') 64-bit 2018-05-23 21:22:33 / mkvmerge v15.0.0 ('Duel with the Devil') 64-bit 2018-05-23 21:22:33 / UTC 2018-05-23T17:56:22Z
    FromStats_BitRate                        : 1508999
    FromStats_Duration                       : 01:15:12.171000000
    FromStats_FrameCount                     : 423016
    FromStats_StreamSize                     : 851108192

    Text #1
    ID                                       : 4
    Format                                   : PGS
    Muxing mode                              : zlib
    Codec ID                                 : S_HDMV/PGS
    Codec ID/Info                            : Picture based subtitle format used on BDs/HD-DVDs
    Language                                 : English
    Default                                  : No
    Forced                                   : No
    Statistics Tags Issue                    : mkvmerge v15.0.0 ('Duel with the Devil') 64-bit 2018-05-23 21:22:33 / mkvmerge v15.0.0 ('Duel with the Devil') 64-bit 2018-05-23 21:22:33 / UTC 2018-05-23T17:56:22Z
    FromStats_BitRate                        : 53011
    FromStats_Duration                       : 01:14:56.617000000
    FromStats_FrameCount                     : 2632
    FromStats_StreamSize                     : 29796468

    Text #2
    ID                                       : 5
    Format                                   : PGS
    Muxing mode                              : zlib
    Codec ID                                 : S_HDMV/PGS
    Codec ID/Info                            : Picture based subtitle format used on BDs/HD-DVDs
    Language                                 : Spanish
    Default                                  : No
    Forced                                   : No
    Statistics Tags Issue                    : mkvmerge v15.0.0 ('Duel with the Devil') 64-bit 2018-05-23 21:22:33 / mkvmerge v15.0.0 ('Duel with the Devil') 64-bit 2018-05-23 21:22:33 / UTC 2018-05-23T17:56:22Z
    FromStats_BitRate                        : 51393
    FromStats_Duration                       : 01:14:58.911000000
    FromStats_FrameCount                     : 2508
    FromStats_StreamSize                     : 28901715

    Text #3
    ID                                       : 6
    Format                                   : PGS
    Muxing mode                              : zlib
    Codec ID                                 : S_HDMV/PGS
    Codec ID/Info                            : Picture based subtitle format used on BDs/HD-DVDs
    Title                                    : Forzados
    Language                                 : Spanish
    Default                                  : Yes
    Forced                                   : Yes
    Statistics Tags Issue                    : mkvmerge v15.0.0 ('Duel with the Devil') 64-bit 2018-05-23 21:22:33 / mkvmerge v15.0.0 ('Duel with the Devil') 64-bit 2018-05-23 21:22:33 / UTC 2018-05-23T17:56:22Z
    FromStats_BitRate                        : 572
    FromStats_Duration                       : 01:14:46.816000000
    FromStats_FrameCount                     : 28
    FromStats_StreamSize                     : 321191

    Menu
    00:00:00.000                             : :Chapter 1
    00:11:30.023                             : :Chapter 2
    00:20:24.682                             : :Chapter 3
    00:32:46.923                             : :Chapter 4
    00:42:55.364                             : :Chapter 5
    00:50:41.330                             : :Chapter 6
    00:58:14.157                             : :Chapter 7
    01:05:59.956                             : :Chapter 8
    01:11:46.886                             : :Chapter 9

  • Peso: 4.15 GiB

Sinopsis

Daphne y Velma son estudiantes de secundaria que se reúnen cuando sospechan que sus compañeros están siendo convertidos en zombis o drones sin mente.

Ficha técnica

Video trailer de la película

Enlaces de descarga

Rip de Bluray

Descargar Daphne & Velma (2018) Full 1080p Latino




Aportes de DPeliculasHDmega la pass es:dpeliculashdmega.org Aportes de CinemaniaHD la pass es:cinemaniahdd.com

Películas relacionadas

  • Los Gustos y Los Colores (2018) NF 1080p Latino

    2018
    Los Gustos y Los Colores (2018) NF 1080p Latino

    0.0 1h 35m 2018

    Justo cuando Simone se anima a contarle a su conservadora familia judía que es lesbiana, se siente atraída...

    Director: Myriam Aziza

    Género: Comedia

    Actores: Stéphane Debac

  • The lovers (2017) 1080p Latino

    2017
    The lovers (2017) 1080p Latino

    1.0 1h 37m 2017

    Mary y Michael forman un matrimonio de mediana edad que tras años de rutina ambos tienen un amante,...

    Director: Azazel Jacobs

    Género: 1080p Portada Negra

    Actores: Tyler Ross

  • Lady Bird (2017) Full 1080p Latino

    2017
    Lady Bird (2017) Full 1080p Latino

    5.0 1h 34m 2017

    Sacramento, California, año 2002. Una joven llamada Christine McPherson (Saoirse Ronan), apodada como...

    Director: Jonas Spaccarotelli

    Género: Comedia

    Actores: Tracy Letts

  • Plan de escape (2013) Full 1080p Latino

    2013
    Plan de escape (2013) Full 1080p Latino

    3.0 1h 56m 2013

    El experto en seguridad Ray Breslin prueba sus teorías poco convencionales en diseño de prisiones elaborando...

    Director: Mikael Håfström

    Género: Acción

    Actores: Vinnie Jones

  • No me las toquen (2018) 1080p Latino

    2018
    No me las toquen (2018) 1080p Latino

    3.0 1h 42m 2018

    Cuando una madre y dos padres descubren que sus respectivas hijas han hecho un pacto para perder la virginidad...

    Director: Kay Cannon

    Género: 1080p Portada Negra

    Actores: T.C. Carter

Comentarios 0