Cult of Chucky (2017) UNRATED Full Latino

3.299 vistas
1 estrella2 estrellas3 estrellas4 estrellas5 estrellas (4 votos, promedio: 2,75 de 5)
Cargando…

Información de Cult of Chucky (2017) UNRATED Full Latino

Datos de la película

  • Calidad: Full 1080p
  • Audio: Español Latino DTS 5.1 BLURAY - Ingles DTS 5.1 BLURAY
  • Subtitulos: Español Latino PGS - Ingles PGS
  • Resolución: 1920x1080p
  • Formato: MKV
  • Codec: H.264
  • Encoder: Dpelis1
  • Mediainfo: Clic para Mostrar Datos Ver
  • Video
    ID                                       : 1
    Format                                   : AVC
    Format/Info                              : Advanced Video Codec
    Format profile                           : High@L4.1
    Format settings, CABAC                   : Yes
    Format settings, RefFrames               : 4 frames
    Codec ID                                 : V_MPEG4/ISO/AVC
    Duration                                 : 1 h 30 min
    Bit rate                                 : 6 540 kb/s
    Width                                    : 1 920 pixels
    Height                                   : 1 080 pixels
    Display aspect ratio                     : 16:9
    Frame rate mode                          : Constant
    Frame rate                               : 23.976 (24000/1001) FPS
    Color space                              : YUV
    Chroma subsampling                       : 4:2:0
    Bit depth                                : 8 bits
    Scan type                                : Progressive
    Bits/(Pixel*Frame)                       : 0.132
    Stream size                              : 4.15 GiB (73%)
    Writing library                          : x264 core 148 r2708 86b7198
    Encoding settings                        : cabac=1 / ref=4 / deblock=1:0:0 / analyse=0x3:0x133 / me=esa / subme=10 / psy=1 / psy_rd=1.00:0.00 / mixed_ref=1 / me_range=24 / chroma_me=1 / trellis=2 / 8x8dct=1 / cqm=0 / deadzone=21,11 / fast_pskip=1 / chroma_qp_offset=-2 / threads=34 / lookahead_threads=5 / sliced_threads=0 / nr=0 / decimate=1 / interlaced=0 / bluray_compat=0 / constrained_intra=0 / bframes=8 / b_pyramid=2 / b_adapt=2 / b_bias=0 / direct=3 / weightb=1 / open_gop=0 / weightp=2 / keyint=240 / keyint_min=24 / scenecut=40 / intra_refresh=0 / rc_lookahead=60 / rc=crf / mbtree=1 / crf=20.0 / qcomp=0.60 / qpmin=0 / qpmax=69 / qpstep=4 / vbv_maxrate=62500 / vbv_bufsize=78125 / crf_max=0.0 / nal_hrd=none / filler=0 / ip_ratio=1.40 / aq=1:1.00
    Default                                  : Yes
    Forced                                   : No
    Color range                              : Limited
    Color primaries                          : BT.709
    Transfer characteristics                 : BT.709
    Matrix coefficients                      : BT.709

    Audio #1
    ID                                       : 2
    Format                                   : DTS
    Format/Info                              : Digital Theater Systems
    Mode                                     : 16
    Format settings, Endianness              : Big
    Codec ID                                 : A_DTS
    Duration                                 : 1 h 30 min
    Bit rate mode                            : Constant
    Bit rate                                 : 768 kb/s
    Channel(s)                               : 6 channels
    Channel positions                        : Front: L C R, Side: L R, LFE
    Sampling rate                            : 48.0 kHz
    Frame rate                               : 93.750 FPS (512 SPF)
    Bit depth                                : 24 bits
    Compression mode                         : Lossy
    Stream size                              : 500 MiB (9%)
    Title                                    : Surround
    Language                                 : Spanish
    Default                                  : Yes
    Forced                                   : No

    Audio #2
    ID                                       : 3
    Format                                   : DTS
    Format/Info                              : Digital Theater Systems
    Mode                                     : 16
    Format settings, Endianness              : Big
    Codec ID                                 : A_DTS
    Duration                                 : 1 h 30 min
    Bit rate mode                            : Constant
    Bit rate                                 : 1 509 kb/s
    Channel(s)                               : 6 channels
    Channel positions                        : Front: L C R, Side: L R, LFE
    Sampling rate                            : 48.0 kHz
    Frame rate                               : 93.750 FPS (512 SPF)
    Bit depth                                : 24 bits
    Compression mode                         : Lossy
    Stream size                              : 982 MiB (17%)
    Title                                    : Surround
    Language                                 : English
    Default                                  : No
    Forced                                   : No

    Text #1
    ID                                       : 4
    Format                                   : PGS
    Codec ID                                 : S_HDMV/PGS
    Codec ID/Info                            : Picture based subtitle format used on BDs/HD-DVDs
    Language                                 : Spanish
    Default                                  : No
    Forced                                   : No

    Text #2
    ID                                       : 5
    Format                                   : PGS
    Codec ID                                 : S_HDMV/PGS
    Codec ID/Info                            : Picture based subtitle format used on BDs/HD-DVDs
    Language                                 : Spanish
    Default                                  : No
    Forced                                   : No

    Text #3
    ID                                       : 6
    Format                                   : PGS
    Codec ID                                 : S_HDMV/PGS
    Codec ID/Info                            : Picture based subtitle format used on BDs/HD-DVDs
    Language                                 : English
    Default                                  : No
    Forced                                   : No

    Menu
    00:00:00.000                             : :Chapter 1
    00:02:36.573                             : :Chapter 2
    00:07:26.571                             : :Chapter 3
    00:11:59.260                             : :Chapter 4
    00:15:36.853                             : :Chapter 5
    00:19:20.451                             : :Chapter 6
    00:25:09.008                             : :Chapter 7
    00:29:37.276                             : :Chapter 8
    00:33:01.730                             : :Chapter 9
    00:38:30.892                             : :Chapter 10
    00:46:01.133                             : :Chapter 11
    00:51:16.949                             : :Chapter 12
    00:56:06.029                             : :Chapter 13
    01:01:22.470                             : :Chapter 14
    01:08:10.878                             : :Chapter 15
    01:12:07.782                             : :Chapter 16
    01:17:08.666                             : :Chapter 17
    01:21:58.163                             : :Chapter 18
    01:24:33.485                             : :Chapter 19
    01:26:59.715                             : :Chapter 20

  • Peso: 5,75 GB

Sinopsis

Descargar gratis Cult of Chucky (2017) Full Latino. Encerrada durante los últimos 4 años en un psiquiátrico, Nica Pierce está convencida erróneamente de que ella, y no Chucky, asesinó a toda su familia. Pero cuando su psiquiatra introduce una nueva “herramienta” para facilitar la sesiones en grupo de sus pacientes -un muñeco con una inocente sonrisa- empieza una cadena de extrañas muertes en el psiquiátrico, y Nica empieza a preguntarse si al final no estará tan loca como creía.

Ficha técnica

  • Titulo original: Cult of Chucky
  • Fecha de lanzamiento: 23-09-2017 (United States of America)
  • Director: Don Mancini
  • Género: Suspense, Terror
  • Puntuación: 2.8 4 votos
  • Duración:
    0h 0m

Video trailer de la película

Enlaces de descarga

Rip de Bluray

Descargar Cult of Chucky (2017) UNRATED Full Latino




Aportes de DPeliculasHDmega la pass es:dpeliculashdmega.org Aportes de CinemaniaHD la pass es:cinemaniahdd.com
Guardado en : Suspense , Terror

Películas relacionadas

  • Slender Man (2018) 1080p Latino

    2018
    Slender Man (2018) 1080p Latino

    1.0 1h 33m 2018

    “El hombre más pálido. El traje más oscuro. Más grande que el gigante más alto. Ten miedo de este...

    Director: Sylvain White

    Género: Terror

    Actores: Michael Tow

  • El reverendo (2017) Full 1080p Latino

    2018
    El reverendo (2017) Full 1080p Latino

    1.0 1h 53m 2018

    Descargar El reverendo [First Reformed] (2017) 1080p Latino; Mega, Google Drive. El encuentro con un...

    Director: Paul Schrader

    Género: Drama

    Actores: Victoria Hill

  • El apostol (2018) NF 1080p Latino

    2018
    El apostol (2018) NF 1080p Latino

    5.0 2h 10m 2018

    El apóstol HD 1080p Latino Netflix Thomas Richardson llega de incógnito a una isla idílica con la...

    Director: Gareth Evans

    Género: Peliculas Netflix

    Actores: Stuart McNeil

Comentarios 9
  • GURI - 09 octubre, 2017

    GRACIAS SOY NUEVO Y MEGUSTU ESTA PAGINA LA CALIDA ES TREMENDA QUE SIGAN SI GRCIAS

    • dpelis - 09 octubre, 2017

      bienvenido. saludos

  • slash - 29 septiembre, 2017

    Muchas gracias.

  • hizaki_86 - 28 septiembre, 2017

    Muchas gracias por esta versión, saludos.

  • paulo - 28 septiembre, 2017

    gracias x la pelicula empezando con la descarga

  • juan - 28 septiembre, 2017

    pregunta estimado cuando saldrá la versión pesada de piratas del caribe y la extendida de alien????

    • dpelis - 28 septiembre, 2017

      cuando haya bd final latino

  • Isaac - 27 septiembre, 2017

    ¿Es la Unrated?

    • dpelis - 27 septiembre, 2017

      SI Estimado