Cuando las luces se apagan (2016) Full 1080p Latino

1.359 vistas
1 estrella2 estrellas3 estrellas4 estrellas5 estrellas (1 votos, promedio: 5,00 de 5)
Cargando…

Información de Cuando las luces se apagan (2016) Full 1080p Latino

Datos de la película

  • Calidad: Full 1080p
  • Audio: Español Latino AC3 5.1 BLURAY - Ingles DTS 5.1 BLURAY
  • Subtitulos: Español Latino PGS - Ingles PGS
  • Resolución: 1920X1080p
  • Formato: MKV
  • Codec: H.264
  • Encoder: Dracarys
  • Mediainfo: Clic para Mostrar Datos Ver
  • Format                                   : Matroska
    Format version                           : Version 4 / Version 2
    File size                                : 4.91 GiB
    Duration                                 : 1 h 20 min
    Overall bit rate                         : 8 680 kb/s
    Movie name                               : CinemaniaHDD.com
    Encoded date                             : UTC 2018-01-12 06:08:15 / UTC 2017-12-22T08:18:00Z
    Writing application                      : mkvmerge v15.0.0 ('Duel with the Devil') 64-bit
    Writing library                          : libebml v1.3.5 + libmatroska v1.4.5 / Lavf57.7.2

    Video
    ID                                       : 1
    Format                                   : AVC
    Format/Info                              : Advanced Video Codec
    Format profile                           : High@L4.1
    Format settings                          : CABAC / 4 Ref Frames
    Format settings, CABAC                   : Yes
    Format settings, RefFrames               : 4 frames
    Codec ID                                 : V_MPEG4/ISO/AVC
    Duration                                 : 1 h 20 min
    Bit rate                                 : 6 358 kb/s
    Width                                    : 1 920 pixels
    Height                                   : 1 080 pixels
    Display aspect ratio                     : 16:9
    Frame rate mode                          : Constant
    Frame rate                               : 23.976 (24000/1001) FPS
    Color space                              : YUV
    Chroma subsampling                       : 4:2:0
    Bit depth                                : 8 bits
    Scan type                                : Progressive
    Bits/(Pixel*Frame)                       : 0.128
    Stream size                              : 3.60 GiB (73%)
    Title                                    : Cuando las luces se apagan (2016) Full 1080p Latino
    Writing library                          : x264 core 148 r2708 86b7198
    Encoding settings                        : cabac=1 / ref=4 / deblock=1:0:0 / analyse=0x3:0x133 / me=esa / subme=10 / psy=1 / psy_rd=1.00:0.00 / mixed_ref=1 / me_range=24 / chroma_me=1 / trellis=2 / 8x8dct=1 / cqm=0 / deadzone=21,11 / fast_pskip=1 / chroma_qp_offset=-2 / threads=34 / lookahead_threads=5 / sliced_threads=0 / nr=0 / decimate=1 / interlaced=0 / bluray_compat=0 / constrained_intra=0 / bframes=8 / b_pyramid=2 / b_adapt=2 / b_bias=0 / direct=3 / weightb=1 / open_gop=0 / weightp=2 / keyint=240 / keyint_min=24 / scenecut=40 / intra_refresh=0 / rc_lookahead=60 / rc=crf / mbtree=1 / crf=20.0 / qcomp=0.60 / qpmin=0 / qpmax=69 / qpstep=4 / vbv_maxrate=62500 / vbv_bufsize=78125 / crf_max=0.0 / nal_hrd=none / filler=0 / ip_ratio=1.40 / aq=1:1.00
    Language                                 : English
    Default                                  : Yes
    Forced                                   : No
    Color range                              : Limited
    Color primaries                          : BT.709
    Transfer characteristics                 : BT.709
    Matrix coefficients                      : BT.709
    Statistics Tags Issue                    : mkvmerge v15.0.0 ('Duel with the Devil') 64-bit 2018-01-12 06:08:15 / mkvmerge v15.0.0 ('Duel with the Devil') 64-bit 2018-01-12 06:08:15 / UTC 2017-12-22T08:18:00Z
    FromStats_BitRate                        : 6513119
    FromStats_Duration                       : 01:20:57.144000000
    FromStats_FrameCount                     : 116455
    FromStats_StreamSize                     : 3954395140

    Audio #1
    ID                                       : 2
    Format                                   : AC-3
    Format/Info                              : Audio Coding 3
    Format settings, Endianness              : Big
    Codec ID                                 : A_AC3
    Duration                                 : 1 h 20 min
    Bit rate mode                            : Constant
    Bit rate                                 : 640 kb/s
    Channel(s)                               : 6 channels
    Channel positions                        : Front: L C R, Side: L R, LFE
    Sampling rate                            : 48.0 kHz
    Frame rate                               : 31.250 FPS (1536 SPF)
    Bit depth                                : 16 bits
    Compression mode                         : Lossy
    Stream size                              : 371 MiB (7%)
    Language                                 : Spanish
    Service kind                             : Complete Main
    Default                                  : Yes
    Forced                                   : No
    Statistics Tags Issue                    : mkvmerge v15.0.0 ('Duel with the Devil') 64-bit 2018-01-12 06:08:15 / mkvmerge v15.0.0 ('Duel with the Devil') 64-bit 2018-01-12 06:08:15 / UTC 2017-12-22T08:18:00Z
    FromStats_BitRate                        : 640000
    FromStats_Duration                       : 01:20:57.152000000
    FromStats_FrameCount                     : 151786
    FromStats_StreamSize                     : 388572160

    Audio #2
    ID                                       : 3
    Format                                   : DTS
    Format/Info                              : Digital Theater Systems
    Mode                                     : 16
    Format settings, Endianness              : Big
    Codec ID                                 : A_DTS
    Duration                                 : 1 h 20 min
    Bit rate mode                            : Constant
    Bit rate                                 : 1 509 kb/s
    Channel(s)                               : 6 channels
    Channel positions                        : Front: L C R, Side: L R, LFE
    Sampling rate                            : 48.0 kHz
    Frame rate                               : 93.750 FPS (512 SPF)
    Bit depth                                : 24 bits
    Compression mode                         : Lossy
    Stream size                              : 874 MiB (17%)
    Language                                 : English
    Default                                  : No
    Forced                                   : No
    Statistics Tags Issue                    : mkvmerge v15.0.0 ('Duel with the Devil') 64-bit 2018-01-12 06:08:15 / mkvmerge v15.0.0 ('Duel with the Devil') 64-bit 2018-01-12 06:08:15 / UTC 2017-12-22T08:18:00Z
    FromStats_BitRate                        : 1509000
    FromStats_Duration                       : 01:20:57.152000000
    FromStats_FrameCount                     : 455358
    FromStats_StreamSize                     : 916180296

    Text #1
    ID                                       : 4
    Format                                   : PGS
    Muxing mode                              : zlib
    Codec ID                                 : S_HDMV/PGS
    Codec ID/Info                            : Picture based subtitle format used on BDs/HD-DVDs
    Language                                 : English
    Default                                  : No
    Forced                                   : No
    Statistics Tags Issue                    : mkvmerge v15.0.0 ('Duel with the Devil') 64-bit 2018-01-12 06:08:15 / mkvmerge v15.0.0 ('Duel with the Devil') 64-bit 2018-01-12 06:08:15 / UTC 2017-12-22T08:18:00Z
    FromStats_BitRate                        : 25595
    FromStats_Duration                       : 01:20:01.296000000
    FromStats_FrameCount                     : 1932
    FromStats_StreamSize                     : 15361435

    Text #2
    ID                                       : 5
    Format                                   : PGS
    Muxing mode                              : zlib
    Codec ID                                 : S_HDMV/PGS
    Codec ID/Info                            : Picture based subtitle format used on BDs/HD-DVDs
    Title                                    : Forzados
    Language                                 : Spanish
    Default                                  : Yes
    Forced                                   : Yes
    Statistics Tags Issue                    : mkvmerge v15.0.0 ('Duel with the Devil') 64-bit 2018-01-12 06:08:15 / mkvmerge v15.0.0 ('Duel with the Devil') 64-bit 2018-01-12 06:08:15 / UTC 2017-12-22T08:18:00Z
    FromStats_BitRate                        : 298
    FromStats_Duration                       : 01:19:47.950000000
    FromStats_FrameCount                     : 22
    FromStats_StreamSize                     : 178848

    Text #3
    ID                                       : 6
    Format                                   : PGS
    Muxing mode                              : zlib
    Codec ID                                 : S_HDMV/PGS
    Codec ID/Info                            : Picture based subtitle format used on BDs/HD-DVDs
    Language                                 : Spanish
    Default                                  : No
    Forced                                   : No
    Statistics Tags Issue                    : mkvmerge v15.0.0 ('Duel with the Devil') 64-bit 2018-01-12 06:08:15 / mkvmerge v15.0.0 ('Duel with the Devil') 64-bit 2018-01-12 06:08:15 / UTC 2017-12-22T08:18:00Z
    FromStats_BitRate                        : 19695
    FromStats_Duration                       : 01:19:47.950000000
    FromStats_FrameCount                     : 1642
    FromStats_StreamSize                     : 11787541

    Menu
    00:00:00.000                             : :Chapter 1
    00:10:01.559                             : :Chapter 2
    00:21:07.349                             : :Chapter 3
    00:30:12.936                             : :Chapter 4
    00:40:57.664                             : :Chapter 5
    00:50:38.285                             : :Chapter 6
    00:58:43.603                             : :Chapter 7
    01:09:54.190                             : :Chapter 8
    01:16:21.285                             : :Chapter 9

     

  • Peso: 4.91 GiB

Sinopsis

Rebecca es una joven que es perseguida desde niña por Diana, un ser extraño que sólo puede atacar en la oscuridad. El espíritu de Diana está relacionado con la madre de Rebecca. Ahora que se está convirtiendo en adulta, Diana va a por su hermano pequeño, Martín. Adaptación del corto de 2013, “Lights Out “, del mismo David F. Sandberg.

Ficha técnica

Video trailer de la película

Enlaces de descarga

Rip de Bluray

Descargar Cuando las luces se apagan (2016) Full 1080p Latino




Aportes de DPeliculasHDmega la pass es:dpeliculashdmega.org Aportes de CinemaniaHD la pass es:cinemaniahdd.com

Películas relacionadas

  • Isle of the Dead (2016) WEB-DL 1080p Latino

    2016
    Isle of the Dead (2016) WEB-DL 1080p Latino

    5.0 1 h 27 min 2016

    Extraños atrapados en una isla aislada luchan por sobrevivir contra hordas de muertos.     Latino...

    Director: Nick Lyon

    Género: Terror

    Actores: Todd Cattell

  • Si solo pudiera imaginar (2018) Full 1080p Latino

    2018
    Si solo pudiera imaginar (2018) Full 1080p Latino

    5.0 1 h 50 min 2018

    La historia real de la aclamada canción "I Can Only Imagine", la canción cristiana contemporánea más...

    Director: Jon Erwin

    Género: Drama

    Actores: Trace Adkins

  • El Justiciero (2014) Full 1080p Latino

    2014
    El Justiciero (2014) Full 1080p Latino

    4.0 2 h 12 min 2014

    Robert McCall, un antiguo agente de la CIA que lleva ahora una vida tranquila, abandona su retiro para...

    Director: Deirdre Horgan

    Género: Acción

    Actores: Yan Dron

Comentarios 0