Contacto en Francia (1971) Full 1080p Latino | CinemaniaHD - Descargar Peliculas 1080p Mega Google Drive

Contacto en Francia (1971) Full 1080p Latino

352 vistas
1 estrella2 estrellas3 estrellas4 estrellas5 estrellas (Ninguna valoración todavía)
Cargando…

Información de Contacto en Francia (1971) Full 1080p Latino

Datos de la película

  • Calidad: Full 1080p
  • Audio: Español Latino AC3 5.1 BLURAY - Ingles DTS 5.1 BLURAY
  • Subtitulos: Español Latino PGS - Ingles PGS
  • Resolución: 1920x1080p
  • Formato: MKV
  • Codec: H.264
  • Encoder: Dracarys
  • Mediainfo: Clic para Mostrar Datos Ver
  • Format                                   : Matroska
    Format version                           : Version 4 / Version 2
    File size                                : 25.3 GiB
    Duration                                 : 1 h 43 min
    Overall bit rate                         : 35.0 Mb/s
    Movie name                               : CinemaniaHDD.net
    Encoded date                             : UTC 2018-08-09 02:25:59 / UTC 2018-08-03T22:01:11Z
    Writing application                      : mkvmerge v15.0.0 ('Duel with the Devil') 64-bit
    Writing library                          : libebml v1.3.5 + libmatroska v1.4.5 / Lavf57.7.2

    Video
    ID                                       : 1
    Format                                   : AVC
    Format/Info                              : Advanced Video Codec
    Format profile                           : High@L4.1
    Format settings                          : CABAC / 4 Ref Frames
    Format settings, CABAC                   : Yes
    Format settings, RefFrames               : 4 frames
    Codec ID                                 : V_MPEG4/ISO/AVC
    Duration                                 : 1 h 43 min
    Bit rate                                 : 32.3 Mb/s
    Width                                    : 1 920 pixels
    Height                                   : 1 080 pixels
    Display aspect ratio                     : 16:9
    Frame rate mode                          : Constant
    Frame rate                               : 23.976 (24000/1001) FPS
    Color space                              : YUV
    Chroma subsampling                       : 4:2:0
    Bit depth                                : 8 bits
    Scan type                                : Progressive
    Bits/(Pixel*Frame)                       : 0.650
    Stream size                              : 23.4 GiB (92%)
    Title                                    : Contacto en Francia (1971) Full 1080p Latino
    Writing library                          : x264 core 148 r2708 86b7198
    Encoding settings                        : cabac=1 / ref=4 / deblock=1:0:0 / analyse=0x3:0x133 / me=esa / subme=10 / psy=1 / psy_rd=1.00:0.00 / mixed_ref=1 / me_range=24 / chroma_me=1 / trellis=2 / 8x8dct=1 / cqm=0 / deadzone=21,11 / fast_pskip=1 / chroma_qp_offset=-2 / threads=34 / lookahead_threads=5 / sliced_threads=0 / nr=0 / decimate=1 / interlaced=0 / bluray_compat=0 / constrained_intra=0 / bframes=8 / b_pyramid=2 / b_adapt=2 / b_bias=0 / direct=3 / weightb=1 / open_gop=0 / weightp=2 / keyint=240 / keyint_min=24 / scenecut=40 / intra_refresh=0 / rc_lookahead=60 / rc=crf / mbtree=1 / crf=19.0 / qcomp=0.60 / qpmin=0 / qpmax=69 / qpstep=4 / vbv_maxrate=62500 / vbv_bufsize=78125 / crf_max=0.0 / nal_hrd=none / filler=0 / ip_ratio=1.40 / aq=1:1.00
    Language                                 : English
    Default                                  : Yes
    Forced                                   : No
    Color range                              : Limited
    Color primaries                          : BT.709
    Transfer characteristics                 : BT.709
    Matrix coefficients                      : BT.709
    Statistics Tags Issue                    : mkvmerge v15.0.0 ('Duel with the Devil') 64-bit 2018-08-09 02:25:59 / mkvmerge v15.0.0 ('Duel with the Devil') 64-bit 2018-08-09 02:25:59 / UTC 2018-08-03T22:01:11Z
    FromStats_BitRate                        : 32968225
    FromStats_Duration                       : 01:43:42.425000000
    FromStats_FrameCount                     : 149189
    FromStats_StreamSize                     : 25642788532

    Audio #1
    ID                                       : 2
    Format                                   : AC-3
    Format/Info                              : Audio Coding 3
    Format settings, Endianness              : Big
    Codec ID                                 : A_AC3
    Duration                                 : 1 h 43 min
    Bit rate mode                            : Constant
    Bit rate                                 : 448 kb/s
    Channel(s)                               : 6 channels
    Channel positions                        : Front: L C R, Side: L R, LFE
    Sampling rate                            : 48.0 kHz
    Frame rate                               : 31.250 FPS (1536 SPF)
    Bit depth                                : 16 bits
    Compression mode                         : Lossy
    Delay relative to video                  : 15 ms
    Stream size                              : 332 MiB (1%)
    Language                                 : Spanish
    Service kind                             : Complete Main
    Default                                  : Yes
    Forced                                   : No
    Statistics Tags Issue                    : mkvmerge v15.0.0 ('Duel with the Devil') 64-bit 2018-08-09 02:25:59 / mkvmerge v15.0.0 ('Duel with the Devil') 64-bit 2018-08-09 02:25:59 / UTC 2018-08-03T22:01:11Z
    FromStats_BitRate                        : 448000
    FromStats_Duration                       : 01:43:41.504000000
    FromStats_FrameCount                     : 194422
    FromStats_StreamSize                     : 348404224

    Audio #2
    ID                                       : 3
    Format                                   : DTS
    Format/Info                              : Digital Theater Systems
    Mode                                     : 16
    Format settings, Endianness              : Big
    Codec ID                                 : A_DTS
    Duration                                 : 1 h 43 min
    Bit rate mode                            : Constant
    Bit rate                                 : 1 509 kb/s
    Channel(s)                               : 6 channels
    Channel positions                        : Front: L C R, Side: L R, LFE
    Sampling rate                            : 48.0 kHz
    Frame rate                               : 93.750 FPS (512 SPF)
    Bit depth                                : 24 bits
    Compression mode                         : Lossy
    Delay relative to video                  : 4 ms
    Stream size                              : 1.09 GiB (4%)
    Title                                    : Surround
    Language                                 : English
    Default                                  : No
    Forced                                   : No
    Statistics Tags Issue                    : mkvmerge v15.0.0 ('Duel with the Devil') 64-bit 2018-08-09 02:25:59 / mkvmerge v15.0.0 ('Duel with the Devil') 64-bit 2018-08-09 02:25:59 / UTC 2018-08-03T22:01:11Z
    FromStats_BitRate                        : 1508999
    FromStats_Duration                       : 01:43:41.494000000
    FromStats_FrameCount                     : 583265
    FromStats_StreamSize                     : 1173529180

    Text #1
    ID                                       : 4
    Format                                   : PGS
    Muxing mode                              : zlib
    Codec ID                                 : S_HDMV/PGS
    Codec ID/Info                            : Picture based subtitle format used on BDs/HD-DVDs
    Language                                 : English
    Default                                  : No
    Forced                                   : No
    Statistics Tags Issue                    : mkvmerge v15.0.0 ('Duel with the Devil') 64-bit 2018-08-09 02:25:59 / mkvmerge v15.0.0 ('Duel with the Devil') 64-bit 2018-08-09 02:25:59 / UTC 2018-08-03T22:01:11Z
    FromStats_BitRate                        : 43091
    FromStats_Duration                       : 01:41:00.346000000
    FromStats_FrameCount                     : 1873
    FromStats_StreamSize                     : 32643343

    Text #2
    ID                                       : 5
    Format                                   : PGS
    Muxing mode                              : zlib
    Codec ID                                 : S_HDMV/PGS
    Codec ID/Info                            : Picture based subtitle format used on BDs/HD-DVDs
    Language                                 : Spanish
    Default                                  : No
    Forced                                   : No
    Statistics Tags Issue                    : mkvmerge v15.0.0 ('Duel with the Devil') 64-bit 2018-08-09 02:25:59 / mkvmerge v15.0.0 ('Duel with the Devil') 64-bit 2018-08-09 02:25:59 / UTC 2018-08-03T22:01:11Z
    FromStats_BitRate                        : 31471
    FromStats_Duration                       : 01:41:42.764000000
    FromStats_FrameCount                     : 1463
    FromStats_StreamSize                     : 24007694

    Text #3
    ID                                       : 6
    Format                                   : PGS
    Muxing mode                              : zlib
    Codec ID                                 : S_HDMV/PGS
    Codec ID/Info                            : Picture based subtitle format used on BDs/HD-DVDs
    Title                                    : Forzados
    Language                                 : Spanish
    Default                                  : Yes
    Forced                                   : Yes
    Statistics Tags Issue                    : mkvmerge v15.0.0 ('Duel with the Devil') 64-bit 2018-08-09 02:25:59 / mkvmerge v15.0.0 ('Duel with the Devil') 64-bit 2018-08-09 02:25:59 / UTC 2018-08-03T22:01:11Z
    FromStats_BitRate                        : 4144
    FromStats_Duration                       : 01:41:42.764000000
    FromStats_FrameCount                     : 194
    FromStats_StreamSize                     : 3161477

    Menu
    00:00:00.000                             : :Chapter 1
    00:00:55.681                             : :Chapter 2
    00:03:32.754                             : :Chapter 3
    00:07:23.693                             : :Chapter 4
    00:09:43.249                             : :Chapter 5
    00:14:40.963                             : :Chapter 6
    00:20:37.820                             : :Chapter 7
    00:23:05.509                             : :Chapter 8
    00:25:53.135                             : :Chapter 9
    00:29:32.479                             : :Chapter 10
    00:32:55.307                             : :Chapter 11
    00:34:33.280                             : :Chapter 12
    00:39:25.697                             : :Chapter 13
    00:41:03.419                             : :Chapter 14
    00:42:01.686                             : :Chapter 15
    00:45:29.185                             : :Chapter 16
    00:51:59.533                             : :Chapter 17
    00:55:04.676                             : :Chapter 18
    01:02:17.484                             : :Chapter 19
    01:05:08.988                             : :Chapter 20
    01:06:24.981                             : :Chapter 21
    01:10:08.246                             : :Chapter 22
    01:16:48.145                             : :Chapter 23
    01:17:39.822                             : :Chapter 24
    01:24:54.715                             : :Chapter 25
    01:28:32.849                             : :Chapter 26
    01:31:00.246                             : :Chapter 27
    01:32:33.965                             : :Chapter 28
    01:36:28.866                             : :Chapter 29
    01:39:37.346                             : :Chapter 30
    01:41:30.334                             : :Chapter 31
    01:42:00.489                             : :Chapter 32

  • Peso: 25.3 GiB

Sinopsis

Jimmy Doyle y Buddy Rosso son dos policías neoyorquinos que siguen la pista de una red de traficantes de drogas. El primero, que confía en su olfato, sospecha que una confitería de Brooklyn está implicada y convence a su jefe para intervenir la línea telefónica. Poco después, Doyle y sus hombres siguen al dueño de la confitería, que los conduce hasta Nicoly y Charnier, dos franceses que acaban de llegar a Estados Unidos.

Ficha técnica

Video trailer de la película

Enlaces de descarga

Rip de Bluray

Descargar Contacto en Francia (1971) Full 1080p Latino




Aportes de DPeliculasHDmega la pass es:dpeliculashdmega.org Aportes de CinemaniaHD la pass es:cinemaniahdd.com

Películas relacionadas

  • La jungla (2017) 1080p Latino

    2017
    La jungla (2017) 1080p Latino

    0.0 1h 55m 2017

    Cuenta la historia real de Yossi Ghinsberg, un joven aventurero que vivió para escribir un bestseller...

    Director: Greg McLean

    Género: 1080p Portada Negra

    Actores: Yasmin Kassim

  • V/H/S: (2014) Full 1080p Subtitulado

    2014
    V/H/S: (2014) Full 1080p Subtitulado

    4.2 1 h 21 min 2014

    Un camión está causando el caos en la calle, atropellando a todo aquel que se cruza en su camino. Mientras...

    Director: Todd Lincoln

    Género: FULL 1080p Plateadas

    Actores: Nick Blanco

  • V/H/S Las crónicas del miedo 2 (2013) Full 1080p Latino

    2013
    V/H/S Las crónicas del miedo 2 (2013) Full 1080p Latino

    4.3 1h 35m 2013

    Secuela de V/H/S (2012). Buscando a un estudiante desaparecido, dos investigadores privados irrumpen...

    Director: Timo Tjahjanto

    Género: FULL 1080p Plateadas

    Actores: Samantha Gracie

  • V/H/S Las crónicas del miedo (2012) Full 1080p Latino

    2012
    V/H/S Las crónicas del miedo (2012) Full 1080p Latino

    4.3 1 h 56 min 2012

    Un grupo de matones son contratados por un misterioso sujeto para que vayan a una casa abandonada y encuentren...

    Director: Tyler Gillett

    Género: FULL 1080p Plateadas

    Actores: Tyler Gillett

Comentarios 0