Condenados a fugarse (1999) Full 1080p Latino

562 vistas
1 estrella2 estrellas3 estrellas4 estrellas5 estrellas (Ninguna valoración todavía)
Cargando…

Información de Condenados a fugarse (1999) Full 1080p Latino

Datos de la película

  • Calidad: Full 1080p
  • Audio: Español Latino DTS 5.1 BLURAY - Ingles DTS 5.1 BLURAY
  • Subtitulos: Español Latino PGS - Ingles PGS
  • Resolución: 1920x1080p
  • Formato: MKV
  • Codec: H.264
  • Encoder: Dracarys
  • Mediainfo: Clic para Mostrar Datos Ver
  • Format                                   : Matroska
    Format version                           : Version 4 / Version 2
    File size                                : 6.11 GiB
    Duration                                 : 1 h 48 min
    Overall bit rate                         : 8 062 kb/s
    Movie name                               : CinemaniaHDD.net
    Encoded date                             : UTC 2018-10-07 18:49:35 / UTC 2018-09-25T07:27:34Z
    Writing application                      : mkvmerge v15.0.0 ('Duel with the Devil') 64-bit
    Writing library                          : libebml v1.3.5 + libmatroska v1.4.5 / Lavf57.7.2

    Video
    ID                                       : 1
    Format                                   : AVC
    Format/Info                              : Advanced Video Codec
    Format profile                           : High@L4.1
    Format settings                          : CABAC / 4 Ref Frames
    Format settings, CABAC                   : Yes
    Format settings, RefFrames               : 4 frames
    Codec ID                                 : V_MPEG4/ISO/AVC
    Duration                                 : 1 h 48 min
    Bit rate                                 : 5 624 kb/s
    Width                                    : 1 920 pixels
    Height                                   : 1 080 pixels
    Display aspect ratio                     : 16:9
    Frame rate mode                          : Constant
    Frame rate                               : 23.976 (24000/1001) FPS
    Color space                              : YUV
    Chroma subsampling                       : 4:2:0
    Bit depth                                : 8 bits
    Scan type                                : Progressive
    Bits/(Pixel*Frame)                       : 0.113
    Stream size                              : 4.26 GiB (70%)
    Writing library                          : x264 core 148 r2708 86b7198
    Encoding settings                        : cabac=1 / ref=4 / deblock=1:0:0 / analyse=0x3:0x133 / me=esa / subme=10 / psy=1 / psy_rd=1.00:0.00 / mixed_ref=1 / me_range=24 / chroma_me=1 / trellis=2 / 8x8dct=1 / cqm=0 / deadzone=21,11 / fast_pskip=1 / chroma_qp_offset=-2 / threads=34 / lookahead_threads=5 / sliced_threads=0 / nr=0 / decimate=1 / interlaced=0 / bluray_compat=0 / constrained_intra=0 / bframes=8 / b_pyramid=2 / b_adapt=2 / b_bias=0 / direct=3 / weightb=1 / open_gop=0 / weightp=2 / keyint=240 / keyint_min=24 / scenecut=40 / intra_refresh=0 / rc_lookahead=60 / rc=crf / mbtree=1 / crf=20.0 / qcomp=0.60 / qpmin=0 / qpmax=69 / qpstep=4 / vbv_maxrate=62500 / vbv_bufsize=78125 / crf_max=0.0 / nal_hrd=none / filler=0 / ip_ratio=1.40 / aq=1:1.00
    Language                                 : English
    Default                                  : Yes
    Forced                                   : No
    Color range                              : Limited
    Color primaries                          : BT.709
    Transfer characteristics                 : BT.709
    Matrix coefficients                      : BT.709
    Statistics Tags Issue                    : mkvmerge v15.0.0 ('Duel with the Devil') 64-bit 2018-10-07 18:49:35 / mkvmerge v15.0.0 ('Duel with the Devil') 64-bit 2018-10-07 18:49:35 / UTC 2018-09-25T07:27:34Z
    FromStats_BitRate                        : 5754208
    FromStats_Duration                       : 01:48:30.212000000
    FromStats_FrameCount                     : 156089
    FromStats_StreamSize                     : 4682639912

    Audio #1
    ID                                       : 2
    Format                                   : DTS
    Format/Info                              : Digital Theater Systems
    Mode                                     : 16
    Format settings, Endianness              : Big
    Codec ID                                 : A_DTS
    Duration                                 : 1 h 48 min
    Bit rate mode                            : Constant
    Bit rate                                 : 768 kb/s
    Channel(s)                               : 6 channels
    Channel positions                        : Front: L C R, Side: L R, LFE
    Sampling rate                            : 48.0 kHz
    Frame rate                               : 93.750 FPS (512 SPF)
    Bit depth                                : 24 bits
    Compression mode                         : Lossy
    Stream size                              : 596 MiB (10%)
    Language                                 : Spanish
    Default                                  : Yes
    Forced                                   : No
    Statistics Tags Issue                    : mkvmerge v15.0.0 ('Duel with the Devil') 64-bit 2018-10-07 18:49:35 / mkvmerge v15.0.0 ('Duel with the Devil') 64-bit 2018-10-07 18:49:35 / UTC 2018-09-25T07:27:34Z
    FromStats_BitRate                        : 767999
    FromStats_Duration                       : 01:48:30.251000000
    FromStats_FrameCount                     : 610336
    FromStats_StreamSize                     : 624984064

    Audio #2
    ID                                       : 3
    Format                                   : DTS
    Format/Info                              : Digital Theater Systems
    Mode                                     : 16
    Format settings, Endianness              : Big
    Codec ID                                 : A_DTS
    Duration                                 : 1 h 48 min
    Bit rate mode                            : Constant
    Bit rate                                 : 1 509 kb/s
    Channel(s)                               : 6 channels
    Channel positions                        : Front: L C R, Side: L R, LFE
    Sampling rate                            : 48.0 kHz
    Frame rate                               : 93.750 FPS (512 SPF)
    Bit depth                                : 24 bits
    Compression mode                         : Lossy
    Stream size                              : 1.14 GiB (19%)
    Language                                 : English
    Default                                  : No
    Forced                                   : No
    Statistics Tags Issue                    : mkvmerge v15.0.0 ('Duel with the Devil') 64-bit 2018-10-07 18:49:35 / mkvmerge v15.0.0 ('Duel with the Devil') 64-bit 2018-10-07 18:49:35 / UTC 2018-09-25T07:27:34Z
    FromStats_BitRate                        : 1508999
    FromStats_Duration                       : 01:48:30.251000000
    FromStats_FrameCount                     : 610336
    FromStats_StreamSize                     : 1227996032

    Text #1
    ID                                       : 4
    Format                                   : PGS
    Muxing mode                              : zlib
    Codec ID                                 : S_HDMV/PGS
    Codec ID/Info                            : Picture based subtitle format used on BDs/HD-DVDs
    Language                                 : English
    Default                                  : No
    Forced                                   : No
    Statistics Tags Issue                    : mkvmerge v15.0.0 ('Duel with the Devil') 64-bit 2018-10-07 18:49:35 / mkvmerge v15.0.0 ('Duel with the Devil') 64-bit 2018-10-07 18:49:35 / UTC 2018-09-25T07:27:34Z
    FromStats_BitRate                        : 60773
    FromStats_Duration                       : 01:43:36.877000000
    FromStats_FrameCount                     : 3981
    FromStats_StreamSize                     : 47227372

    Text #2
    ID                                       : 5
    Format                                   : PGS
    Muxing mode                              : zlib
    Codec ID                                 : S_HDMV/PGS
    Codec ID/Info                            : Picture based subtitle format used on BDs/HD-DVDs
    Language                                 : Spanish
    Default                                  : No
    Forced                                   : No
    Statistics Tags Issue                    : mkvmerge v15.0.0 ('Duel with the Devil') 64-bit 2018-10-07 18:49:35 / mkvmerge v15.0.0 ('Duel with the Devil') 64-bit 2018-10-07 18:49:35 / UTC 2018-09-25T07:27:34Z
    FromStats_BitRate                        : 38655
    FromStats_Duration                       : 01:41:53.942000000
    FromStats_FrameCount                     : 2861
    FromStats_StreamSize                     : 29542518

    Text #3
    ID                                       : 6
    Format                                   : PGS
    Muxing mode                              : zlib
    Codec ID                                 : S_HDMV/PGS
    Codec ID/Info                            : Picture based subtitle format used on BDs/HD-DVDs
    Title                                    : Forzado
    Language                                 : Spanish
    Default                                  : Yes
    Forced                                   : Yes
    Statistics Tags Issue                    : mkvmerge v15.0.0 ('Duel with the Devil') 64-bit 2018-10-07 18:49:35 / mkvmerge v15.0.0 ('Duel with the Devil') 64-bit 2018-10-07 18:49:35 / UTC 2018-09-25T07:27:34Z
    FromStats_BitRate                        : 216
    FromStats_Duration                       : 01:28:00.025000000
    FromStats_FrameCount                     : 12
    FromStats_StreamSize                     : 143062

    Menu
    00:00:00.000                             : :Chapter 1
    00:02:24.770                             : :Chapter 2
    00:04:01.533                             : :Chapter 3
    00:08:24.254                             : :Chapter 4
    00:11:23.183                             : :Chapter 5
    00:16:29.614                             : :Chapter 6
    00:25:46.295                             : :Chapter 7
    00:30:10.183                             : :Chapter 8
    00:38:33.478                             : :Chapter 9
    00:47:56.457                             : :Chapter 10
    00:51:09.358                             : :Chapter 11
    00:58:11.279                             : :Chapter 12
    01:05:45.150                             : :Chapter 13
    01:08:36.446                             : :Chapter 14
    01:18:16.483                             : :Chapter 15
    01:29:53.221                             : :Chapter 16
    01:36:42.297                             : :Chapter 17
    01:42:58.255                             : :Chapter 18

     

  • Peso: 6.11 GiB

Sinopsis

Nueva York, 1932. Ray Gibson es un delincuente de poca monta que acaba de colarse en el club Spanky y detecta enseguida a su primera víctima de la noche. El ingenuo Claude Banks, aspirante a contable, ha salido con su novia esa noche y poco sospecha que se ha convertido en el blanco de Ray. La cartera de Claude pasa a manos de Ray, quien cree haber conseguido así el dinero para pagar la deuda de juego que tiene con Spanky. Pero Ray se lleva un chasco porque Claude, que también tiene el vicio del juego, está tan arruinado como él. (FILMAFFINITY)

Ficha técnica

Video trailer de la película

Enlaces de descarga

Rip de Bluray

Descargar Condenados a fugarse (1999) Full 1080p Latino




Aportes de DPeliculasHDmega la pass es:dpeliculashdmega.org Aportes de CinemaniaHD la pass es:cinemaniahdd.com

Películas relacionadas

  • The Night Comes For Us (2018) NF 1080p Latino

    2018
    The Night Comes For Us (2018) NF 1080p Latino

    1.0 2h 1m 2018

    The Night Comes For Us (2018) NF 1080p Latino; Mega, Google Drive. Un antiguo sicario debe proteger a...

    Director: Timo Tjahjanto

    Género: Acción

    Actores: Zack Lee

  • Paciente Cero (2018) Full 1080p Latino

    2018
    Paciente Cero (2018) Full 1080p Latino

    3.7 1h 26m 2018

    Paciente Cero (2018) Full 1080p Latino; Mega, Google Drive. Tras una pandemia sin precedentes, la Humanidad...

    Director: Stefan Ruzowitzky

    Género: Acción

    Actores: Yumiko Hanasaka

  • El espia que me planto (2018) 1080p Latino

    2018
    El espia que me planto (2018) 1080p Latino

    5.0 1h 57m 2018

    Audrey (Mila Kunis) y Morgan (Kate McKinnon) son dos amigas que viven en Los Ángeles y que un día se...

    Director: Susanna Fogel

    Género: Acción

    Actores: Sam Heughan

  • The Brink (2017) 1080p Latino

    2017
    The Brink (2017) 1080p Latino

    3.0 1h 46m 2017

    Descargar The Brink (2017) 1080p Latino; Mega, Google Drive. El detective Tung está decidido a atrapar...

    Director: Jonathan Li

    Género: Acción

    Actores: Zhang Jin

Comentarios 0