Cómo entrenar a tu dragón (2010) Full 1080p Latino

906 vistas
1 estrella2 estrellas3 estrellas4 estrellas5 estrellas (Ninguna valoración todavía)
Cargando…

Información de Cómo entrenar a tu dragón (2010) Full 1080p Latino

Datos de la película

  • Calidad: Full 1080p
  • Audio: Español Latino AC3 5.1 BLURAY - Ingles AC3 5.1 BLURAY
  • Subtitulos: Español Latino PGS - Ingles PGS
  • Resolución: 1920X1080p
  • Formato: MKV
  • Codec: H.264
  • Encoder: Dracarys
  • Mediainfo: Clic para Mostrar Datos Ver
  • Format                                   : Matroska
    Format version                           : Version 4 / Version 2
    File size                                : 3.86 GiB
    Duration                                 : 1 h 37 min
    Overall bit rate                         : 5 651 kb/s
    Movie name                               : CinemaniaHDD.com
    Encoded date                             : UTC 2018-03-22 21:42:53 / UTC 2018-03-22T05:58:32Z
    Writing application                      : mkvmerge v15.0.0 ('Duel with the Devil') 64-bit
    Writing library                          : libebml v1.3.5 + libmatroska v1.4.5 / Lavf57.7.2

    Video
    ID                                       : 1
    Format                                   : AVC
    Format/Info                              : Advanced Video Codec
    Format profile                           : High@L4.1
    Format settings                          : CABAC / 4 Ref Frames
    Format settings, CABAC                   : Yes
    Format settings, RefFrames               : 4 frames
    Codec ID                                 : V_MPEG4/ISO/AVC
    Duration                                 : 1 h 37 min
    Bit rate                                 : 4 451 kb/s
    Width                                    : 1 920 pixels
    Height                                   : 1 080 pixels
    Display aspect ratio                     : 16:9
    Frame rate mode                          : Constant
    Frame rate                               : 23.976 (24000/1001) FPS
    Color space                              : YUV
    Chroma subsampling                       : 4:2:0
    Bit depth                                : 8 bits
    Scan type                                : Progressive
    Bits/(Pixel*Frame)                       : 0.090
    Stream size                              : 3.04 GiB (79%)
    Title                                    : Cómo entrenar a tu dragón (2010) Full 1080p Latino
    Writing library                          : x264 core 148 r2708 86b7198
    Encoding settings                        : cabac=1 / ref=4 / deblock=1:0:0 / analyse=0x3:0x133 / me=esa / subme=9 / psy=1 / psy_rd=1.00:0.00 / mixed_ref=1 / me_range=16 / chroma_me=1 / trellis=2 / 8x8dct=1 / cqm=0 / deadzone=21,11 / fast_pskip=1 / chroma_qp_offset=-2 / threads=34 / lookahead_threads=2 / sliced_threads=0 / nr=0 / decimate=1 / interlaced=0 / bluray_compat=0 / constrained_intra=0 / bframes=3 / b_pyramid=2 / b_adapt=2 / b_bias=0 / direct=3 / weightb=1 / open_gop=0 / weightp=2 / keyint=240 / keyint_min=24 / scenecut=40 / intra_refresh=0 / rc_lookahead=60 / rc=crf / mbtree=1 / crf=20.0 / qcomp=0.60 / qpmin=0 / qpmax=69 / qpstep=4 / vbv_maxrate=62500 / vbv_bufsize=78125 / crf_max=0.0 / nal_hrd=none / filler=0 / ip_ratio=1.40 / aq=1:1.00
    Language                                 : English
    Default                                  : Yes
    Forced                                   : No
    Color range                              : Limited
    Color primaries                          : BT.709
    Transfer characteristics                 : BT.709
    Matrix coefficients                      : BT.709
    Statistics Tags Issue                    : mkvmerge v15.0.0 ('Duel with the Devil') 64-bit 2018-03-22 21:42:53 / mkvmerge v15.0.0 ('Duel with the Devil') 64-bit 2018-03-22 21:42:53 / UTC 2018-03-22T05:58:32Z
    FromStats_BitRate                        : 4533144
    FromStats_Duration                       : 01:37:51.032000000
    FromStats_FrameCount                     : 140764
    FromStats_StreamSize                     : 3326779595

    Audio #1
    ID                                       : 2
    Format                                   : AC-3
    Format/Info                              : Audio Coding 3
    Format settings, Endianness              : Big
    Codec ID                                 : A_AC3
    Duration                                 : 1 h 37 min
    Bit rate mode                            : Constant
    Bit rate                                 : 448 kb/s
    Channel(s)                               : 6 channels
    Channel positions                        : Front: L C R, Side: L R, LFE
    Sampling rate                            : 48.0 kHz
    Frame rate                               : 31.250 FPS (1536 SPF)
    Bit depth                                : 16 bits
    Compression mode                         : Lossy
    Stream size                              : 314 MiB (8%)
    Language                                 : Spanish
    Service kind                             : Complete Main
    Default                                  : Yes
    Forced                                   : No
    Statistics Tags Issue                    : mkvmerge v15.0.0 ('Duel with the Devil') 64-bit 2018-03-22 21:42:53 / mkvmerge v15.0.0 ('Duel with the Devil') 64-bit 2018-03-22 21:42:53 / UTC 2018-03-22T05:58:32Z
    FromStats_BitRate                        : 448000
    FromStats_Duration                       : 01:37:51.008000000
    FromStats_FrameCount                     : 183469
    FromStats_StreamSize                     : 328776448

    Audio #2
    ID                                       : 3
    Format                                   : AC-3
    Format/Info                              : Audio Coding 3
    Format settings, Endianness              : Big
    Codec ID                                 : A_AC3
    Duration                                 : 1 h 37 min
    Bit rate mode                            : Constant
    Bit rate                                 : 640 kb/s
    Channel(s)                               : 6 channels
    Channel positions                        : Front: L C R, Side: L R, LFE
    Sampling rate                            : 48.0 kHz
    Frame rate                               : 31.250 FPS (1536 SPF)
    Bit depth                                : 16 bits
    Compression mode                         : Lossy
    Stream size                              : 448 MiB (11%)
    Language                                 : English
    Service kind                             : Complete Main
    Default                                  : No
    Forced                                   : No
    Statistics Tags Issue                    : mkvmerge v15.0.0 ('Duel with the Devil') 64-bit 2018-03-22 21:42:53 / mkvmerge v15.0.0 ('Duel with the Devil') 64-bit 2018-03-22 21:42:53 / UTC 2018-03-22T05:58:32Z
    FromStats_BitRate                        : 640000
    FromStats_Duration                       : 01:37:51.040000000
    FromStats_FrameCount                     : 183470
    FromStats_StreamSize                     : 469683200

    Text #1
    ID                                       : 4
    Format                                   : PGS
    Muxing mode                              : zlib
    Codec ID                                 : S_HDMV/PGS
    Codec ID/Info                            : Picture based subtitle format used on BDs/HD-DVDs
    Language                                 : English
    Default                                  : No
    Forced                                   : No
    Statistics Tags Issue                    : mkvmerge v15.0.0 ('Duel with the Devil') 64-bit 2018-03-22 21:42:53 / mkvmerge v15.0.0 ('Duel with the Devil') 64-bit 2018-03-22 21:42:53 / UTC 2018-03-22T05:58:32Z
    FromStats_BitRate                        : 37934
    FromStats_Duration                       : 01:28:16.875000000
    FromStats_FrameCount                     : 1740
    FromStats_StreamSize                     : 25116711

    Text #2
    ID                                       : 5
    Format                                   : PGS
    Muxing mode                              : zlib
    Codec ID                                 : S_HDMV/PGS
    Codec ID/Info                            : Picture based subtitle format used on BDs/HD-DVDs
    Language                                 : Spanish
    Default                                  : No
    Forced                                   : No
    Statistics Tags Issue                    : mkvmerge v15.0.0 ('Duel with the Devil') 64-bit 2018-03-22 21:42:53 / mkvmerge v15.0.0 ('Duel with the Devil') 64-bit 2018-03-22 21:42:53 / UTC 2018-03-22T05:58:32Z
    FromStats_BitRate                        : 43673
    FromStats_Duration                       : 01:28:23.512000000
    FromStats_FrameCount                     : 1746
    FromStats_StreamSize                     : 28952562

    Menu
    00:00:00.000                             : :Chapter 1
    00:08:39.769                             : :Chapter 2
    00:11:31.983                             : :Chapter 3
    00:15:11.035                             : :Chapter 4
    00:21:57.066                             : :Chapter 5
    00:27:41.702                             : :Chapter 6
    00:33:14.201                             : :Chapter 7
    00:39:07.136                             : :Chapter 8
    00:43:28.689                             : :Chapter 9
    00:47:08.367                             : :Chapter 10
    00:49:47.193                             : :Chapter 11
    00:59:55.801                             : :Chapter 12
    01:04:47.384                             : :Chapter 13
    01:09:28.164                             : :Chapter 14
    01:12:38.187                             : :Chapter 15
    01:23:26.043                             : :Chapter 16
    01:28:54.496                             : :Chapter 17

  • Peso: 3.86 GiB

Sinopsis

Ambientada en el mítico mundo de los rudos vikingos y los dragones salvajes, y basada en el libro infantil de Cressida Cowell, esta comedia de acción narra la historia de Hipo, un vikingo adolescente que no encaja exactamente en la antiquísima reputación de su tribu como cazadores de dragones. El mundo de Hipo se trastoca al encontrar a un dragón que le desafía a él y a sus compañeros vikingos, a ver el mundo desde un punto de vista totalmente diferente.

Ficha técnica

Video trailer de la película

Enlaces de descarga

Rip de Bluray

Descargar Cómo entrenar a tu dragón (2010) Full 1080p Latino




Aportes de DPeliculasHDmega la pass es:dpeliculashdmega.org Aportes de CinemaniaHD la pass es:cinemaniahdd.com

Películas relacionadas

  • Pato pato Ganso (2018) 1080p Latino

    2018
    Pato pato Ganso (2018) 1080p Latino

    0.0 1h 22m 2018

    Después de que sufrió una lesión, un soltero de alto vuelo se enfrenta a dos huérfanos de ojos muy...

    Director: Christopher Jenkins

    Género: 1080p Portada Negra

    Actores: Zendaya

  • Si solo pudiera imaginar (2018) Full 1080p Latino

    2018
    Si solo pudiera imaginar (2018) Full 1080p Latino

    5.0 1 h 50 min 2018

    La historia real de la aclamada canción "I Can Only Imagine", la canción cristiana contemporánea más...

    Director: Jon Erwin

    Género: Drama

    Actores: Trace Adkins

  • El Justiciero (2014) Full 1080p Latino

    2014
    El Justiciero (2014) Full 1080p Latino

    4.0 2 h 12 min 2014

    Robert McCall, un antiguo agente de la CIA que lleva ahora una vida tranquila, abandona su retiro para...

    Director: Deirdre Horgan

    Género: Acción

    Actores: Yan Dron

Comentarios 2
  • Jairo Gomez - 05 mayo, 2018

    En Google Drive no tengo acceso al archivo
    Me dice: Necesitas permiso y solicitar permiso

    • dpelis - 20 mayo, 2018

      ya se puede descargar