Ciudades de papel (2015) Full 1080p Latino

625 vistas
1 estrella2 estrellas3 estrellas4 estrellas5 estrellas (2 votos, promedio: 5,00 de 5)
Cargando…

Información de Ciudades de papel (2015) Full 1080p Latino

Datos de la película

  • Calidad: Full 1080p
  • Audio: Español Latino AC3 5.1 BLURAY - Ingles DTS 5.1 BLURAY
  • Subtitulos: Español Latino PGS - Ingles PGS
  • Resolución: 1920x1080p
  • Formato: MKV
  • Codec: H.264
  • Encoder: Dracarys
  • Mediainfo: Clic para Mostrar Datos Ver
  • Format                                   : Matroska
    Format version                           : Version 4 / Version 2
    File size                                : 3.12 GiB
    Duration                                 : 1 h 49 min
    Overall bit rate                         : 4 095 kb/s
    Movie name                               : CinemaniaHDD.net
    Encoded date                             : UTC 2018-05-23 21:09:23 / UTC 2018-05-18T03:52:36Z
    Writing application                      : mkvmerge v15.0.0 ('Duel with the Devil') 64-bit
    Writing library                          : libebml v1.3.5 + libmatroska v1.4.5 / Lavf57.7.2

    Video
    ID                                       : 1
    Format                                   : AVC
    Format/Info                              : Advanced Video Codec
    Format profile                           : High@L4.1
    Format settings                          : CABAC / 4 Ref Frames
    Format settings, CABAC                   : Yes
    Format settings, RefFrames               : 4 frames
    Codec ID                                 : V_MPEG4/ISO/AVC
    Duration                                 : 1 h 49 min
    Bit rate                                 : 2 056 kb/s
    Width                                    : 1 920 pixels
    Height                                   : 1 080 pixels
    Display aspect ratio                     : 16:9
    Frame rate mode                          : Constant
    Frame rate                               : 23.976 (24000/1001) FPS
    Color space                              : YUV
    Chroma subsampling                       : 4:2:0
    Bit depth                                : 8 bits
    Scan type                                : Progressive
    Bits/(Pixel*Frame)                       : 0.041
    Stream size                              : 1.57 GiB (50%)
    Title                                    : Ciudades de papel (2015) Full 1080p Latino
    Writing library                          : x264 core 148 r2708 86b7198
    Encoding settings                        : cabac=1 / ref=4 / deblock=1:0:0 / analyse=0x3:0x133 / me=esa / subme=9 / psy=1 / psy_rd=1.00:0.00 / mixed_ref=1 / me_range=16 / chroma_me=1 / trellis=2 / 8x8dct=1 / cqm=0 / deadzone=21,11 / fast_pskip=1 / chroma_qp_offset=-2 / threads=34 / lookahead_threads=2 / sliced_threads=0 / nr=0 / decimate=1 / interlaced=0 / bluray_compat=0 / constrained_intra=0 / bframes=3 / b_pyramid=2 / b_adapt=2 / b_bias=0 / direct=3 / weightb=1 / open_gop=0 / weightp=2 / keyint=240 / keyint_min=24 / scenecut=40 / intra_refresh=0 / rc_lookahead=60 / rc=crf / mbtree=1 / crf=20.0 / qcomp=0.60 / qpmin=0 / qpmax=69 / qpstep=4 / vbv_maxrate=62500 / vbv_bufsize=78125 / crf_max=0.0 / nal_hrd=none / filler=0 / ip_ratio=1.40 / aq=1:1.00
    Language                                 : English
    Default                                  : Yes
    Forced                                   : No
    Color range                              : Limited
    Color primaries                          : BT.709
    Transfer characteristics                 : BT.709
    Matrix coefficients                      : BT.709
    Statistics Tags Issue                    : mkvmerge v15.0.0 ('Duel with the Devil') 64-bit 2018-05-23 21:09:23 / mkvmerge v15.0.0 ('Duel with the Devil') 64-bit 2018-05-23 21:09:23 / UTC 2018-05-18T03:52:36Z
    FromStats_BitRate                        : 2085603
    FromStats_Duration                       : 01:49:05.498000000
    FromStats_FrameCount                     : 156935
    FromStats_StreamSize                     : 1706413805

    Audio #1
    ID                                       : 2
    Format                                   : AC-3
    Format/Info                              : Audio Coding 3
    Format settings, Endianness              : Big
    Codec ID                                 : A_AC3
    Duration                                 : 1 h 49 min
    Bit rate mode                            : Constant
    Bit rate                                 : 448 kb/s
    Channel(s)                               : 6 channels
    Channel positions                        : Front: L C R, Side: L R, LFE
    Sampling rate                            : 48.0 kHz
    Frame rate                               : 31.250 FPS (1536 SPF)
    Bit depth                                : 16 bits
    Compression mode                         : Lossy
    Stream size                              : 350 MiB (11%)
    Language                                 : Spanish
    Service kind                             : Complete Main
    Default                                  : Yes
    Forced                                   : No
    Statistics Tags Issue                    : mkvmerge v15.0.0 ('Duel with the Devil') 64-bit 2018-05-23 21:09:23 / mkvmerge v15.0.0 ('Duel with the Devil') 64-bit 2018-05-23 21:09:23 / UTC 2018-05-18T03:52:36Z
    FromStats_BitRate                        : 448000
    FromStats_Duration                       : 01:49:05.568000000
    FromStats_FrameCount                     : 204549
    FromStats_StreamSize                     : 366551808

    Audio #2
    ID                                       : 3
    Format                                   : DTS
    Format/Info                              : Digital Theater Systems
    Mode                                     : 16
    Format settings, Endianness              : Big
    Codec ID                                 : A_DTS
    Duration                                 : 1 h 49 min
    Bit rate mode                            : Constant
    Bit rate                                 : 1 509 kb/s
    Channel(s)                               : 6 channels
    Channel positions                        : Front: L C R, Side: L R, LFE
    Sampling rate                            : 48.0 kHz
    Frame rate                               : 93.750 FPS (512 SPF)
    Bit depth                                : 24 bits
    Compression mode                         : Lossy
    Stream size                              : 1.15 GiB (37%)
    Language                                 : English
    Default                                  : No
    Forced                                   : No
    Statistics Tags Issue                    : mkvmerge v15.0.0 ('Duel with the Devil') 64-bit 2018-05-23 21:09:23 / mkvmerge v15.0.0 ('Duel with the Devil') 64-bit 2018-05-23 21:09:23 / UTC 2018-05-18T03:52:36Z
    FromStats_BitRate                        : 1509000
    FromStats_Duration                       : 01:49:05.536000000
    FromStats_FrameCount                     : 613644
    FromStats_StreamSize                     : 1234651728

    Text #1
    ID                                       : 4
    Format                                   : PGS
    Muxing mode                              : zlib
    Codec ID                                 : S_HDMV/PGS
    Codec ID/Info                            : Picture based subtitle format used on BDs/HD-DVDs
    Language                                 : English
    Default                                  : No
    Forced                                   : No
    Statistics Tags Issue                    : mkvmerge v15.0.0 ('Duel with the Devil') 64-bit 2018-05-23 21:09:23 / mkvmerge v15.0.0 ('Duel with the Devil') 64-bit 2018-05-23 21:09:23 / UTC 2018-05-18T03:52:36Z
    FromStats_BitRate                        : 45508
    FromStats_Duration                       : 01:43:44.218000000
    FromStats_FrameCount                     : 3780
    FromStats_StreamSize                     : 35406744

    Text #2
    ID                                       : 5
    Format                                   : PGS
    Muxing mode                              : zlib
    Codec ID                                 : S_HDMV/PGS
    Codec ID/Info                            : Picture based subtitle format used on BDs/HD-DVDs
    Language                                 : Spanish
    Default                                  : No
    Forced                                   : No
    Statistics Tags Issue                    : mkvmerge v15.0.0 ('Duel with the Devil') 64-bit 2018-05-23 21:09:23 / mkvmerge v15.0.0 ('Duel with the Devil') 64-bit 2018-05-23 21:09:23 / UTC 2018-05-18T03:52:36Z
    FromStats_BitRate                        : 32937
    FromStats_Duration                       : 01:48:21.870000000
    FromStats_FrameCount                     : 2930
    FromStats_StreamSize                     : 26769590

    Text #3
    ID                                       : 6
    Format                                   : PGS
    Muxing mode                              : zlib
    Codec ID                                 : S_HDMV/PGS
    Codec ID/Info                            : Picture based subtitle format used on BDs/HD-DVDs
    Title                                    : Forzados
    Language                                 : Spanish
    Default                                  : Yes
    Forced                                   : Yes
    Statistics Tags Issue                    : mkvmerge v15.0.0 ('Duel with the Devil') 64-bit 2018-05-23 21:09:23 / mkvmerge v15.0.0 ('Duel with the Devil') 64-bit 2018-05-23 21:09:23 / UTC 2018-05-18T03:52:36Z
    FromStats_BitRate                        : 78412
    FromStats_Duration                       : 01:48:55.946000000
    FromStats_FrameCount                     : 4884
    FromStats_StreamSize                     : 64062389

    Menu
    00:00:00.000                             : :Chapter 1
    00:03:59.156                             : :Chapter 2
    00:06:03.196                             : :Chapter 3
    00:09:06.629                             : :Chapter 4
    00:11:11.379                             : :Chapter 5
    00:13:35.064                             : :Chapter 6
    00:18:08.212                             : :Chapter 7
    00:22:26.011                             : :Chapter 8
    00:27:34.278                             : :Chapter 9
    00:31:18.210                             : :Chapter 10
    00:33:18.747                             : :Chapter 11
    00:37:51.311                             : :Chapter 12
    00:40:43.983                             : :Chapter 13
    00:43:56.551                             : :Chapter 14
    00:48:08.803                             : :Chapter 15
    00:50:20.100                             : :Chapter 16
    00:54:39.193                             : :Chapter 17
    00:59:02.706                             : :Chapter 18
    01:02:54.312                             : :Chapter 19
    01:06:57.931                             : :Chapter 20
    01:13:01.085                             : :Chapter 21
    01:16:48.938                             : :Chapter 22
    01:21:41.522                             : :Chapter 23
    01:26:22.094                             : :Chapter 24
    01:33:31.147                             : :Chapter 25
    01:36:36.499                             : :Chapter 26
    01:39:32.967                             : :Chapter 27
    01:42:30.686                             : :Chapter 28

  • Peso: 3.12 GiB

Sinopsis

Quentin Jacobsen ha pasado toda su vida amando en secreto a la aventurera Margo Roth Spiegelman. Así que cuando ella rompe una ventana y entra en su vida disfrazada de ninja y reclutándole para una misión de venganza, él le sigue sin dudar. Después de que la noche que han pasado juntos termine y el día comience, Q llega al colegio para descubrir que Margo, que siempre ha sido un enigma, ahora es un completo misterio. Pero Q descubre que hay pistas y que son para él. Andando por un camino sin conexión, cuanto más cerca está, menos ve de la chica que él creía que conocía.

Ficha técnica

Video trailer de la película

Enlaces de descarga

Rip de Bluray

Descargar Ciudades de papel (2015) Full 1080p Latino




Aportes de DPeliculasHDmega la pass es:dpeliculashdmega.org Aportes de CinemaniaHD la pass es:cinemaniahdd.com

Películas relacionadas

  • Los Gustos y Los Colores (2018) NF 1080p Latino

    2018
    Los Gustos y Los Colores (2018) NF 1080p Latino

    0.0 1h 35m 2018

    Justo cuando Simone se anima a contarle a su conservadora familia judía que es lesbiana, se siente atraída...

    Director: Myriam Aziza

    Género: Comedia

    Actores: Stéphane Debac

  • Luke Cage (2018) Temporada 2 NF 1080p Latino

    2018
    Luke Cage (2018) Temporada 2 NF 1080p Latino

    1.0 0h 46m 2018

    De acuerdo a la sinopsis oficial de la segunda temporada, Luke Cage se ha convertido en un héroe reconocido...

    Director: Cheo Hodari Coker

    Género: Action & Adventure

    Actores: Theo Rossi

  • Luke Cage (2016) Temporada 1 NF 1080p Latino

    2016
    Luke Cage (2016) Temporada 1 NF 1080p Latino

    1.0 0h 46m 2016

    Como consecuencia de un experimento fallido, Luke Cage (Mike Colter) ha desarrollado una piel indestructible...

    Director: Cheo Hodari Coker

    Género: Action & Adventure

    Actores: Theo Rossi

  • Lady Bird (2017) Full 1080p Latino

    2017
    Lady Bird (2017) Full 1080p Latino

    5.0 1h 34m 2017

    Sacramento, California, año 2002. Una joven llamada Christine McPherson (Saoirse Ronan), apodada como...

    Director: Jonas Spaccarotelli

    Género: Comedia

    Actores: Tracy Letts

Comentarios 1
  • Anibal - 24 mayo, 2018

    Excelente aporte !