City of Angels (1998) Full 1080p Latino

999 vistas
1 estrella2 estrellas3 estrellas4 estrellas5 estrellas (2 votos, promedio: 5,00 de 5)
Cargando…

Información de City of Angels (1998) Full 1080p Latino

Datos de la película

  • Calidad: Full 1080p
  • Audio: Español Latino AC3 2.0 BLURAY - Ingles DTS 5.1 BLURAY
  • Subtitulos: Español Latino PGS - Ingles PGS
  • Resolución: 1920x1080p
  • Formato: MKV
  • Codec: H.264
  • Encoder: Dracarys
  • Mediainfo: Clic para Mostrar Datos Ver
  • Format                                   : Matroska
    Format version                           : Version 4 / Version 2
    File size                                : 8.61 GiB
    Duration                                 : 1 h 54 min
    Overall bit rate                         : 10.8 Mb/s
    Movie name                               : CinemaniaHDD.com
    Encoded date                             : UTC 2018-05-17 19:29:53 / UTC 2018-05-17T07:35:29Z
    Writing application                      : mkvmerge v15.0.0 ('Duel with the Devil') 64-bit
    Writing library                          : libebml v1.3.5 + libmatroska v1.4.5 / Lavf57.7.2

    Video
    ID                                       : 1
    Format                                   : AVC
    Format/Info                              : Advanced Video Codec
    Format profile                           : High@L4.1
    Format settings                          : CABAC / 4 Ref Frames
    Format settings, CABAC                   : Yes
    Format settings, RefFrames               : 4 frames
    Codec ID                                 : V_MPEG4/ISO/AVC
    Duration                                 : 1 h 54 min
    Bit rate                                 : 8 877 kb/s
    Width                                    : 1 920 pixels
    Height                                   : 1 080 pixels
    Display aspect ratio                     : 16:9
    Frame rate mode                          : Constant
    Frame rate                               : 23.976 (24000/1001) FPS
    Color space                              : YUV
    Chroma subsampling                       : 4:2:0
    Bit depth                                : 8 bits
    Scan type                                : Progressive
    Bits/(Pixel*Frame)                       : 0.179
    Stream size                              : 7.08 GiB (82%)
    Title                                    : City of Angels (1998) Full 1080p Latino
    Writing library                          : x264 core 148 r2708 86b7198
    Encoding settings                        : cabac=1 / ref=4 / deblock=1:0:0 / analyse=0x3:0x133 / me=esa / subme=9 / psy=1 / psy_rd=1.00:0.00 / mixed_ref=1 / me_range=16 / chroma_me=1 / trellis=2 / 8x8dct=1 / cqm=0 / deadzone=21,11 / fast_pskip=1 / chroma_qp_offset=-2 / threads=34 / lookahead_threads=2 / sliced_threads=0 / nr=0 / decimate=1 / interlaced=0 / bluray_compat=0 / constrained_intra=0 / bframes=3 / b_pyramid=2 / b_adapt=2 / b_bias=0 / direct=3 / weightb=1 / open_gop=0 / weightp=2 / keyint=240 / keyint_min=24 / scenecut=40 / intra_refresh=0 / rc_lookahead=60 / rc=crf / mbtree=1 / crf=20.0 / qcomp=0.60 / qpmin=0 / qpmax=69 / qpstep=4 / vbv_maxrate=62500 / vbv_bufsize=78125 / crf_max=0.0 / nal_hrd=none / filler=0 / ip_ratio=1.40 / aq=1:1.00
    Language                                 : English
    Default                                  : Yes
    Forced                                   : No
    Color range                              : Limited
    Color primaries                          : BT.709
    Transfer characteristics                 : BT.709
    Matrix coefficients                      : BT.709
    Statistics Tags Issue                    : mkvmerge v15.0.0 ('Duel with the Devil') 64-bit 2018-05-17 19:29:53 / mkvmerge v15.0.0 ('Duel with the Devil') 64-bit 2018-05-17 19:29:53 / UTC 2018-05-17T07:35:29Z
    FromStats_BitRate                        : 9071948
    FromStats_Duration                       : 01:54:13.472000000
    FromStats_FrameCount                     : 164319
    FromStats_StreamSize                     : 7771793276

    Audio #1
    ID                                       : 2
    Format                                   : AC-3
    Format/Info                              : Audio Coding 3
    Mode                                     : Dolby Digital
    Format settings, Endianness              : Big
    Codec ID                                 : A_AC3
    Duration                                 : 1 h 54 min
    Bit rate mode                            : Constant
    Bit rate                                 : 192 kb/s
    Channel(s)                               : 2 channels
    Channel positions                        : Front: L R
    Sampling rate                            : 48.0 kHz
    Frame rate                               : 31.250 FPS (1536 SPF)
    Bit depth                                : 16 bits
    Compression mode                         : Lossy
    Stream size                              : 157 MiB (2%)
    Language                                 : Spanish
    Service kind                             : Complete Main
    Default                                  : Yes
    Forced                                   : No
    Statistics Tags Issue                    : mkvmerge v15.0.0 ('Duel with the Devil') 64-bit 2018-05-17 19:29:53 / mkvmerge v15.0.0 ('Duel with the Devil') 64-bit 2018-05-17 19:29:53 / UTC 2018-05-17T07:35:29Z
    FromStats_BitRate                        : 192000
    FromStats_Duration                       : 01:54:13.536000000
    FromStats_FrameCount                     : 214173
    FromStats_StreamSize                     : 164484864

    Audio #2
    ID                                       : 3
    Format                                   : DTS
    Format/Info                              : Digital Theater Systems
    Mode                                     : 16
    Format settings, Endianness              : Big
    Codec ID                                 : A_DTS
    Duration                                 : 1 h 54 min
    Bit rate mode                            : Constant
    Bit rate                                 : 1 509 kb/s
    Channel(s)                               : 6 channels
    Channel positions                        : Front: L C R, Side: L R, LFE
    Sampling rate                            : 48.0 kHz
    Frame rate                               : 93.750 FPS (512 SPF)
    Bit depth                                : 16 bits
    Compression mode                         : Lossy
    Stream size                              : 1.20 GiB (14%)
    Language                                 : English
    Default                                  : No
    Forced                                   : No
    Statistics Tags Issue                    : mkvmerge v15.0.0 ('Duel with the Devil') 64-bit 2018-05-17 19:29:53 / mkvmerge v15.0.0 ('Duel with the Devil') 64-bit 2018-05-17 19:29:53 / UTC 2018-05-17T07:35:29Z
    FromStats_BitRate                        : 1509000
    FromStats_Duration                       : 01:54:13.504000000
    FromStats_FrameCount                     : 642516
    FromStats_StreamSize                     : 1292742192

    Text #1
    ID                                       : 4
    Format                                   : PGS
    Muxing mode                              : zlib
    Codec ID                                 : S_HDMV/PGS
    Codec ID/Info                            : Picture based subtitle format used on BDs/HD-DVDs
    Language                                 : English
    Default                                  : No
    Forced                                   : No
    Statistics Tags Issue                    : mkvmerge v15.0.0 ('Duel with the Devil') 64-bit 2018-05-17 19:29:53 / mkvmerge v15.0.0 ('Duel with the Devil') 64-bit 2018-05-17 19:29:53 / UTC 2018-05-17T07:35:29Z
    FromStats_BitRate                        : 20635
    FromStats_Duration                       : 01:53:46.445000000
    FromStats_FrameCount                     : 2186
    FromStats_StreamSize                     : 17608075

    Text #2
    ID                                       : 5
    Format                                   : PGS
    Muxing mode                              : zlib
    Codec ID                                 : S_HDMV/PGS
    Codec ID/Info                            : Picture based subtitle format used on BDs/HD-DVDs
    Language                                 : Spanish
    Default                                  : No
    Forced                                   : No
    Statistics Tags Issue                    : mkvmerge v15.0.0 ('Duel with the Devil') 64-bit 2018-05-17 19:29:53 / mkvmerge v15.0.0 ('Duel with the Devil') 64-bit 2018-05-17 19:29:53 / UTC 2018-05-17T07:35:29Z
    FromStats_BitRate                        : 17877
    FromStats_Duration                       : 01:53:44.985000000
    FromStats_FrameCount                     : 2062
    FromStats_StreamSize                     : 15251584

    Menu
    00:00:00.000                             : :Chapter 1
    00:10:13.571                             : :Chapter 2
    00:20:24.557                             : :Chapter 3
    00:31:05.697                             : :Chapter 4
    00:41:18.935                             : :Chapter 5
    00:51:08.274                             : :Chapter 6
    01:01:21.052                             : :Chapter 7
    01:11:53.434                             : :Chapter 8
    01:23:58.867                             : :Chapter 9
    01:33:18.718                             : :Chapter 10
    01:41:57.445                             : :Chapter 11
    01:47:34.448                             : :Chapter 12

  • Peso: 8.61 GiB

Sinopsis

Cuando sentimos una especie de presencia invisible, es que un ángel de la guarda está entre nosotros. Éste es el caso de Maggie, una cardióloga por la que empieza a interesarse Seth, un ángel llegado del cielo. El único obstáculo en su relación es la inmortalidad de Seth.

Ficha técnica

Video trailer de la película

Enlaces de descarga

Rip de Bluray

Descargar City of Angels (1998) Full 1080p Latino




Aportes de DPeliculasHDmega la pass es:dpeliculashdmega.org Aportes de CinemaniaHD la pass es:cinemaniahdd.com

Películas relacionadas

Comentarios 0