CHiPs (2017) 720p Latino

987 vistas
1 estrella2 estrellas3 estrellas4 estrellas5 estrellas (Ninguna valoración todavía)
Cargando…

Información de CHiPs (2017) 720p Latino

Datos de la película

  • Calidad:
  • Audio: Español Latino AC3 5.1 DVD - Ingles AC3 5.1 BLURAY
  • Subtitulos: Español Latino SRT - Ingles SRT
  • Resolución: 1280x720p
  • Formato: MKV
  • Codec: H.264
  • Encoder: Frank19
  • Mediainfo: Clic para Mostrar Datos Ver
  • cHIPS.720P.latino.mkv
    Format                      : Matroska
    Format version              : Version 4 / Version 2
    File size                   : 1.72 GiB
    Duration                    : 1 h 40 min
    Overall bit rate            : 2 446 kb/s
    Encoded date                : UTC 2017-06-13 01:37:14 / UTC 2017-06-13T00:06:22Z
    Writing application         : mkvmerge v10.0.0 ('To Drown In You') 64bit
    Writing library             : libebml v1.3.4 + libmatroska v1.4.5 / Lavf57.7.2

    Video
    ID                          : 1
    Format                      : AVC
    Format/Info                 : Advanced Video Codec
    Format profile              : High@L4.1
    Format settings, CABAC      : Yes
    Format settings, ReFrames   : 4 frames
    Codec ID                    : V_MPEG4/ISO/AVC
    Duration                    : 1 h 40 min
    Bit rate                    : 1 700 kb/s
    Width                       : 1 280 pixels
    Height                      : 720 pixels
    Display aspect ratio        : 16:9
    Frame rate mode             : Constant
    Frame rate                  : 23.976 (24000/1001) FPS
    Color space                 : YUV
    Chroma subsampling          : 4:2:0
    Bit depth                   : 8 bits
    Scan type                   : Progressive
    Bits/(Pixel*Frame)          : 0.077
    Stream size                 : 1.15 GiB (67%)
    Writing library             : x264 core 148 r2708 86b7198
    Encoding settings           : cabac=1 / ref=3 / deblock=1:0:0 / analyse=0x3:0x113 / me=hex / subme=7 / psy=1 / psy_rd=1.00:0.00 / mixed_ref=1 / me_range=16 / chroma_me=1 / trellis=1 / 8x8dct=1 / cqm=0 / deadzone=21,11 / fast_pskip=1 / chroma_qp_offset=-2 / threads=22 / lookahead_threads=3 / sliced_threads=0 / nr=0 / decimate=1 / interlaced=0 / bluray_compat=0 / constrained_intra=0 / bframes=3 / b_pyramid=2 / b_adapt=1 / b_bias=0 / direct=1 / weightb=1 / open_gop=0 / weightp=2 / keyint=240 / keyint_min=24 / scenecut=40 / intra_refresh=0 / rc_lookahead=40 / rc=abr / mbtree=1 / bitrate=1700 / ratetol=1.0 / qcomp=0.60 / qpmin=0 / qpmax=69 / qpstep=4 / vbv_maxrate=62500 / vbv_bufsize=78125 / nal_hrd=none / filler=0 / ip_ratio=1.40 / aq=1:1.00
    Default                     : Yes
    Forced                      : No
    Color range                 : Limited
    Color primaries             : BT.709
    Transfer characteristics    : BT.709
    Matrix coefficients         : BT.709
    Statistics Tags Issue       : mkvmerge v10.0.0 ('To Drown In You') 64bit 2017-06-13 01:37:14 / mkvmerge v10.0.0 ('To Drown In You') 64bit 2017-06-13 01:37:14 / UTC 2017-06-13T00:06:22Z
    FromStats_BitRate           : 1675387
    FromStats_Duration          : 01:40:51.921000000
    FromStats_FrameCount        : 145101
    FromStats_StreamSize        : 1267413911

    Audio #1
    ID                          : 2
    Format                      : AC-3
    Format/Info                 : Audio Coding 3
    Format settings, Endianness : Big
    Codec ID                    : A_AC3
    Duration                    : 1 h 40 min
    Bit rate mode               : Constant
    Bit rate                    : 384 kb/s
    Channel(s)                  : 6 channels
    Channel positions           : Front: L C R, Side: L R, LFE
    Sampling rate               : 48.0 kHz
    Frame rate                  : 31.250 FPS (1536 spf)
    Bit depth                   : 16 bits
    Compression mode            : Lossy
    Delay relative to video     : -5 ms
    Stream size                 : 277 MiB (16%)
    Language                    : Spanish
    Service kind                : Complete Main
    Default                     : Yes
    Forced                      : No
    Statistics Tags Issue       : mkvmerge v10.0.0 ('To Drown In You') 64bit 2017-06-13 01:37:14 / mkvmerge v10.0.0 ('To Drown In You') 64bit 2017-06-13 01:37:14 / UTC 2017-06-13T00:06:22Z
    FromStats_BitRate           : 384000
    FromStats_Duration          : 01:40:51.904000000
    FromStats_FrameCount        : 189122
    FromStats_StreamSize        : 290491392

    Audio #2
    ID                          : 3
    Format                      : AC-3
    Format/Info                 : Audio Coding 3
    Format settings, Endianness : Big
    Codec ID                    : A_AC3
    Duration                    : 1 h 40 min
    Bit rate mode               : Constant
    Bit rate                    : 384 kb/s
    Channel(s)                  : 6 channels
    Channel positions           : Front: L C R, Side: L R, LFE
    Sampling rate               : 48.0 kHz
    Frame rate                  : 31.250 FPS (1536 spf)
    Bit depth                   : 16 bits
    Compression mode            : Lossy
    Delay relative to video     : -5 ms
    Stream size                 : 277 MiB (16%)
    Title                       : Surround
    Language                    : English
    Service kind                : Complete Main
    Default                     : No
    Forced                      : No
    Statistics Tags Issue       : mkvmerge v10.0.0 ('To Drown In You') 64bit 2017-06-13 01:37:14 / mkvmerge v10.0.0 ('To Drown In You') 64bit 2017-06-13 01:37:14 / UTC 2017-06-13T00:06:22Z
    FromStats_BitRate           : 384000
    FromStats_Duration          : 01:40:51.936000000
    FromStats_FrameCount        : 189123
    FromStats_StreamSize        : 290492928

    Text #1
    ID                          : 4
    Format                      : UTF-8
    Codec ID                    : S_TEXT/UTF8
    Codec ID/Info               : UTF-8 Plain Text
    Language                    : Spanish
    Default                     : No
    Forced                      : No
    Statistics Tags Issue       : mkvmerge v10.0.0 ('To Drown In You') 64bit 2017-06-13 01:37:14 / mkvmerge v10.0.0 ('To Drown In You') 64bit 2017-06-13 01:37:14 / UTC 2017-06-13T00:06:22Z
    FromStats_BitRate           : 77
    FromStats_Duration          : 01:38:13.776000000
    FromStats_FrameCount        : 1879
    FromStats_StreamSize        : 57266

    Text #2
    ID                          : 5
    Format                      : UTF-8
    Codec ID                    : S_TEXT/UTF8
    Codec ID/Info               : UTF-8 Plain Text
    Language                    : English
    Default                     : No
    Forced                      : No
    Statistics Tags Issue       : mkvmerge v10.0.0 ('To Drown In You') 64bit 2017-06-13 01:37:14 / mkvmerge v10.0.0 ('To Drown In You') 64bit 2017-06-13 01:37:14 / UTC 2017-06-13T00:06:22Z
    FromStats_BitRate           : 82
    FromStats_Duration          : 01:37:29.154000000
    FromStats_FrameCount        : 1835
    FromStats_StreamSize        : 60193

    Text #3
    ID                          : 6
    Format                      : UTF-8
    Codec ID                    : S_TEXT/UTF8
    Codec ID/Info               : UTF-8 Plain Text
    Title                       : FORZADOS
    Language                    : Spanish
    Default                     : Yes
    Forced                      : No
    Statistics Tags Issue       : mkvmerge v10.0.0 ('To Drown In You') 64bit 2017-06-13 01:37:14 / mkvmerge v10.0.0 ('To Drown In You') 64bit 2017-06-13 01:37:14 / UTC 2017-06-13T00:06:22Z
    FromStats_BitRate           : 1
    FromStats_Duration          : 01:38:13.776000000
    FromStats_FrameCount        : 41
    FromStats_StreamSize        : 1404

    Menu
    00:00:00.000                : :00:00:00.000
    00:10:48.356                : :00:10:48.356
    00:19:28.959                : :00:19:28.959
    00:29:58.005                : :00:29:58.005
    00:39:53.600                : :00:39:53.600
    00:50:45.668                : :00:50:45.668
    01:02:38.421                : :01:02:38.421
    01:13:40.249                : :01:13:40.249
    01:25:41.386                : :01:25:41.386
    01:37:42.065                : :01:37:41.939

  • Peso: 1.72 GB

Sinopsis

Baker es un desgastado motociclista profesional que está tratando de reconstruir su vida y su matrimonio. Poncherello es un creído agente federal que está investigando un robo de millones de dólares, que puede resultar siendo un trabajo desde dentro. El inexperto principiante y el endurecido experto se unen como equipo, pero en vez de cooperar, enseguida comienzan a pelear. El comienzo de una cooperación fructuosa resulta ser más difícil de lo pensado, pero con las habilidades de motociclista de Baker, y Ponch que “tiene calle”, puede funcionar… si no se vuelven locos uno al otro antes de terminar.

Ficha técnica

Video trailer de la película

Enlaces de descarga

Aportes de DPeliculasHDmega la pass es:dpeliculashdmega.org Aportes de CinemaniaHD la pass es:cinemaniahdd.com
Guardado en : Acción , Comedia , Drama

Películas relacionadas

  • Los Gustos y Los Colores (2018) NF 1080p Latino

    2018
    Los Gustos y Los Colores (2018) NF 1080p Latino

    0.0 1h 35m 2018

    Justo cuando Simone se anima a contarle a su conservadora familia judía que es lesbiana, se siente atraída...

    Director: Myriam Aziza

    Género: Comedia

    Actores: Stéphane Debac

  • Luke Cage (2018) Temporada 2 NF 1080p Latino

    2018
    Luke Cage (2018) Temporada 2 NF 1080p Latino

    1.0 0h 46m 2018

    De acuerdo a la sinopsis oficial de la segunda temporada, Luke Cage se ha convertido en un héroe reconocido...

    Director: Cheo Hodari Coker

    Género: Action & Adventure

    Actores: Theo Rossi

  • Luke Cage (2016) Temporada 1 NF 1080p Latino

    2016
    Luke Cage (2016) Temporada 1 NF 1080p Latino

    1.0 0h 46m 2016

    Como consecuencia de un experimento fallido, Luke Cage (Mike Colter) ha desarrollado una piel indestructible...

    Director: Cheo Hodari Coker

    Género: Action & Adventure

    Actores: Theo Rossi

  • The lovers (2017) 1080p Latino

    2017
    The lovers (2017) 1080p Latino

    1.0 1h 37m 2017

    Mary y Michael forman un matrimonio de mediana edad que tras años de rutina ambos tienen un amante,...

    Director: Azazel Jacobs

    Género: 1080p Portada Negra

    Actores: Tyler Ross

  • Lady Bird (2017) Full 1080p Latino

    2017
    Lady Bird (2017) Full 1080p Latino

    5.0 1h 34m 2017

    Sacramento, California, año 2002. Una joven llamada Christine McPherson (Saoirse Ronan), apodada como...

    Director: Jonas Spaccarotelli

    Género: Comedia

    Actores: Tracy Letts

Comentarios 3
  • Allan F. Zelaya - 17 junio, 2017

    Me alegro que ya estén subiendo contenido en 720p ya que donde miro películas mas seguido es en mi smartphone y la diferencia entre 1080p y 720p no se nota para nada (o bien al menos yo no la noto).

    Muchas gracias!

  • maxi - 13 junio, 2017

    opa, genial si empiezan a subir en 720p, mucahs gracias, saludos

    • dpelis - 14 junio, 2017

      si subiremos solo estrenos