Certain Women: Vidas de mujer (2016) 1080p Latino | CinemaniaHD - Descargar Peliculas 1080p Mega Google Drive

Certain Women: Vidas de mujer (2016) 1080p Latino

746 vistas
1 estrella2 estrellas3 estrellas4 estrellas5 estrellas (Ninguna valoración todavía)
Cargando…

Información de Certain Women: Vidas de mujer (2016) 1080p Latino

Datos de la película

  • Calidad: 1080p
  • Audio: Español Latino AC3 2.0 Capturado - Ingles AC3 5.1 BLURAY
  • Subtitulos: Español Latino SRT
  • Resolución: 1920X1040p
  • Formato: MKV
  • Codec: H.264
  • Encoder: Dracarys
  • Mediainfo: Clic para Mostrar Datos Ver
  • Format                                   : Matroska
    Format version                           : Version 4 / Version 2
    File size                                : 3.17 GiB
    Duration                                 : 1 h 47 min
    Overall bit rate                         : 4 226 kb/s
    Movie name                               : CinemaniaHDD.com
    Encoded date                             : UTC 2018-01-20 10:31:32 / UTC 2018-01-20T07:12:44Z
    Writing application                      : mkvmerge v15.0.0 ('Duel with the Devil') 64-bit
    Writing library                          : libebml v1.3.5 + libmatroska v1.4.5 / Lavf57.7.2

    Video
    ID                                       : 1
    Format                                   : AVC
    Format/Info                              : Advanced Video Codec
    Format profile                           : High@L4.1
    Format settings                          : CABAC / 4 Ref Frames
    Format settings, CABAC                   : Yes
    Format settings, RefFrames               : 4 frames
    Codec ID                                 : V_MPEG4/ISO/AVC
    Duration                                 : 1 h 47 min
    Bit rate                                 : 3 310 kb/s
    Nominal bit rate                         : 3 500 kb/s
    Width                                    : 1 920 pixels
    Height                                   : 1 040 pixels
    Display aspect ratio                     : 1.85:1
    Frame rate mode                          : Constant
    Frame rate                               : 23.976 (24000/1001) FPS
    Color space                              : YUV
    Chroma subsampling                       : 4:2:0
    Bit depth                                : 8 bits
    Scan type                                : Progressive
    Bits/(Pixel*Frame)                       : 0.069
    Stream size                              : 2.48 GiB (78%)
    Title                                    : Certain Women Vidas de mujer (2016) 1080p Latino
    Writing library                          : x264 core 148 r2708 86b7198
    Encoding settings                        : cabac=1 / ref=3 / deblock=1:0:0 / analyse=0x3:0x113 / me=hex / subme=7 / psy=1 / psy_rd=1.00:0.00 / mixed_ref=1 / me_range=16 / chroma_me=1 / trellis=1 / 8x8dct=1 / cqm=0 / deadzone=21,11 / fast_pskip=1 / chroma_qp_offset=-2 / threads=32 / lookahead_threads=5 / sliced_threads=0 / nr=0 / decimate=1 / interlaced=0 / bluray_compat=0 / constrained_intra=0 / bframes=3 / b_pyramid=2 / b_adapt=1 / b_bias=0 / direct=1 / weightb=1 / open_gop=0 / weightp=2 / keyint=240 / keyint_min=24 / scenecut=40 / intra_refresh=0 / rc_lookahead=40 / rc=abr / mbtree=1 / bitrate=3500 / ratetol=1.0 / qcomp=0.60 / qpmin=0 / qpmax=69 / qpstep=4 / vbv_maxrate=62500 / vbv_bufsize=78125 / nal_hrd=none / filler=0 / ip_ratio=1.40 / aq=1:1.00
    Language                                 : English
    Default                                  : Yes
    Forced                                   : No
    Color range                              : Limited
    Color primaries                          : BT.709
    Transfer characteristics                 : BT.709
    Matrix coefficients                      : BT.709
    Statistics Tags Issue                    : mkvmerge v15.0.0 ('Duel with the Devil') 64-bit 2018-01-20 10:31:32 / mkvmerge v15.0.0 ('Duel with the Devil') 64-bit 2018-01-20 10:31:32 / UTC 2018-01-20T07:12:44Z
    FromStats_BitRate                        : 3397847
    FromStats_Duration                       : 01:47:27.400000000
    FromStats_FrameCount                     : 154583
    FromStats_StreamSize                     : 2738410276

    Audio #1
    ID                                       : 2
    Format                                   : AC-3
    Format/Info                              : Audio Coding 3
    Format settings, Endianness              : Big
    Codec ID                                 : A_AC3
    Duration                                 : 1 h 47 min
    Bit rate mode                            : Constant
    Bit rate                                 : 192 kb/s
    Channel(s)                               : 2 channels
    Channel positions                        : Front: L R
    Sampling rate                            : 48.0 kHz
    Frame rate                               : 31.250 FPS (1536 SPF)
    Bit depth                                : 16 bits
    Compression mode                         : Lossy
    Delay relative to video                  : -5 ms
    Stream size                              : 148 MiB (5%)
    Language                                 : Spanish
    Service kind                             : Complete Main
    Default                                  : Yes
    Forced                                   : No
    Statistics Tags Issue                    : mkvmerge v15.0.0 ('Duel with the Devil') 64-bit 2018-01-20 10:31:32 / mkvmerge v15.0.0 ('Duel with the Devil') 64-bit 2018-01-20 10:31:32 / UTC 2018-01-20T07:12:44Z
    FromStats_BitRate                        : 192000
    FromStats_Duration                       : 01:44:12.288000000
    FromStats_FrameCount                     : 195384
    FromStats_StreamSize                     : 150054912

    Audio #2
    ID                                       : 3
    Format                                   : AC-3
    Format/Info                              : Audio Coding 3
    Format settings, Endianness              : Big
    Codec ID                                 : A_AC3
    Duration                                 : 1 h 47 min
    Bit rate mode                            : Constant
    Bit rate                                 : 640 kb/s
    Channel(s)                               : 6 channels
    Channel positions                        : Front: L C R, Side: L R, LFE
    Sampling rate                            : 48.0 kHz
    Frame rate                               : 31.250 FPS (1536 SPF)
    Bit depth                                : 16 bits
    Compression mode                         : Lossy
    Delay relative to video                  : -5 ms
    Stream size                              : 492 MiB (15%)
    Language                                 : English
    Service kind                             : Complete Main
    Default                                  : No
    Forced                                   : No
    Statistics Tags Issue                    : mkvmerge v15.0.0 ('Duel with the Devil') 64-bit 2018-01-20 10:31:32 / mkvmerge v15.0.0 ('Duel with the Devil') 64-bit 2018-01-20 10:31:32 / UTC 2018-01-20T07:12:44Z
    FromStats_BitRate                        : 640000
    FromStats_Duration                       : 01:47:27.456000000
    FromStats_FrameCount                     : 201483
    FromStats_StreamSize                     : 515796480

    Text
    ID                                       : 4
    Format                                   : UTF-8
    Codec ID                                 : S_TEXT/UTF8
    Codec ID/Info                            : UTF-8 Plain Text
    Language                                 : Spanish
    Default                                  : No
    Forced                                   : No
    Statistics Tags Issue                    : mkvmerge v15.0.0 ('Duel with the Devil') 64-bit 2018-01-20 10:31:32 / mkvmerge v15.0.0 ('Duel with the Devil') 64-bit 2018-01-20 10:31:32 / UTC 2018-01-20T07:12:44Z
    FromStats_BitRate                        : 32
    FromStats_Duration                       : 01:41:54.705000000
    FromStats_FrameCount                     : 739
    FromStats_StreamSize                     : 24710

    Menu
    00:00:00.000                             : :00:00:00.000
    00:02:54.800                             : :00:02:54.800
    00:04:58.173                             : :00:04:58.173
    00:08:26.256                             : :00:08:26.256
    00:15:46.654                             : :00:15:46.654
    00:31:49.032                             : :00:31:49.032
    00:40:39.479                             : :00:40:39.479
    00:54:59.880                             : :00:54:59.880
    01:05:34.472                             : :01:05:34.347
    01:20:12.516                             : :01:20:12.516
    01:35:09.037                             : :01:35:09.037
    01:39:47.190                             : :01:39:47.148
    01:41:50.313                             : :01:41:50.313
    01:43:22.571                             : :01:43:22.530

     

  • Peso: 3.17 GiB

Sinopsis

Las vidas de tres mujeres se cruzan en un pequeño pueblo de Estados Unidos, donde cada una está intentando abrirse camino sin demasiado éxito.

Ficha técnica

  • Titulo original: Certain Women
  • Fecha de lanzamiento: 25-09-2016 (United States of America)
  • Director: Kelly Reichardt
  • Género: Drama
  • Puntuación: 0.0 0 votos
  • Duración:
    1 h 47 min

Video trailer de la película

Enlaces de descarga

Rip de Bluray

Descargar Certain Women: Vidas de mujer (2016) 1080p Latino




Aportes de DPeliculasHDmega la pass es:dpeliculashdmega.org Aportes de CinemaniaHD la pass es:cinemaniahdd.com
Guardado en : Drama

Películas relacionadas

  • La jungla (2017) 1080p Latino

    2017
    La jungla (2017) 1080p Latino

    0.0 1h 55m 2017

    Cuenta la historia real de Yossi Ghinsberg, un joven aventurero que vivió para escribir un bestseller...

    Director: Greg McLean

    Género: 1080p Portada Negra

    Actores: Yasmin Kassim

  • Let There Be Light (2017) 1080p Latino

    2017
    Let There Be Light (2017) 1080p Latino

    0.0 1h 40m 2017

    Un ateo vive una experiencia cercana a la muerte tras un accidente de coche y se convierte al cristianismo.

    Director: Kevin Sorbo

    Género: 1080p Portada Negra

    Actores: Sean Hannity

  • María Magdalena (2018) Full 1080p Latino

    2018
    María Magdalena (2018) Full 1080p Latino

    4.5 2h 0m 2018

    Relato de la historia bíblica desde el punto de vista biográfico de María Magdalena (Rooney Mara),...

    Director: Phil Jones

    Género: Drama

    Actores: Zohar Strauss

Comentarios 0