Casino (1995) Full 1080p Latino

907 vistas
1 estrella2 estrellas3 estrellas4 estrellas5 estrellas (1 votos, promedio: 5,00 de 5)
Cargando…

Información de Casino (1995) Full 1080p Latino

Datos de la película

  • Calidad: Full 1080p
  • Audio: Español Latino DTS 5.1 BLURAY - Ingles DTS 5.1 BLURAY
  • Subtitulos: Español Latino PGS - Ingles PGS
  • Resolución: 1920x1080p
  • Formato: MKV
  • Codec: H.264
  • Encoder: Dracarys
  • Mediainfo: Clic para Mostrar Datos Ver
  • Format                                   : Matroska
    Format version                           : Version 4 / Version 2
    File size                                : 13.4 GiB
    Duration                                 : 2 h 58 min
    Overall bit rate                         : 10.8 Mb/s
    Movie name                               : CinemaniaHDD.net
    Encoded date                             : UTC 2018-05-23 20:23:11 / UTC 2018-05-23T03:09:24Z
    Writing application                      : mkvmerge v15.0.0 ('Duel with the Devil') 64-bit
    Writing library                          : libebml v1.3.5 + libmatroska v1.4.5 / Lavf57.7.2

    Video
    ID                                       : 1
    Format                                   : AVC
    Format/Info                              : Advanced Video Codec
    Format profile                           : High@L4.1
    Format settings                          : CABAC / 4 Ref Frames
    Format settings, CABAC                   : Yes
    Format settings, RefFrames               : 4 frames
    Codec ID                                 : V_MPEG4/ISO/AVC
    Duration                                 : 2 h 58 min
    Bit rate                                 : 8 274 kb/s
    Width                                    : 1 920 pixels
    Height                                   : 1 080 pixels
    Display aspect ratio                     : 16:9
    Frame rate mode                          : Constant
    Frame rate                               : 23.976 (24000/1001) FPS
    Color space                              : YUV
    Chroma subsampling                       : 4:2:0
    Bit depth                                : 8 bits
    Scan type                                : Progressive
    Bits/(Pixel*Frame)                       : 0.166
    Stream size                              : 10.3 GiB (77%)
    Title                                    : Casino (1995) Full 1080p Latino
    Writing library                          : x264 core 148 r2708 86b7198
    Encoding settings                        : cabac=1 / ref=4 / deblock=1:0:0 / analyse=0x3:0x133 / me=esa / subme=9 / psy=1 / psy_rd=1.00:0.00 / mixed_ref=1 / me_range=16 / chroma_me=1 / trellis=2 / 8x8dct=1 / cqm=0 / deadzone=21,11 / fast_pskip=1 / chroma_qp_offset=-2 / threads=34 / lookahead_threads=2 / sliced_threads=0 / nr=0 / decimate=1 / interlaced=0 / bluray_compat=0 / constrained_intra=0 / bframes=3 / b_pyramid=2 / b_adapt=2 / b_bias=0 / direct=3 / weightb=1 / open_gop=0 / weightp=2 / keyint=240 / keyint_min=24 / scenecut=40 / intra_refresh=0 / rc_lookahead=60 / rc=crf / mbtree=1 / crf=20.0 / qcomp=0.60 / qpmin=0 / qpmax=69 / qpstep=4 / vbv_maxrate=62500 / vbv_bufsize=78125 / crf_max=0.0 / nal_hrd=none / filler=0 / ip_ratio=1.40 / aq=1:1.00
    Language                                 : English
    Default                                  : Yes
    Forced                                   : No
    Color range                              : Limited
    Color primaries                          : BT.709
    Transfer characteristics                 : BT.709
    Matrix coefficients                      : BT.709
    Statistics Tags Issue                    : mkvmerge v15.0.0 ('Duel with the Devil') 64-bit 2018-05-23 20:23:11 / mkvmerge v15.0.0 ('Duel with the Devil') 64-bit 2018-05-23 20:23:11 / UTC 2018-05-23T03:09:24Z
    FromStats_BitRate                        : 8454555
    FromStats_Duration                       : 02:58:20.190000000
    FromStats_FrameCount                     : 256548
    FromStats_StreamSize                     : 11308168885

    Audio #1
    ID                                       : 2
    Format                                   : DTS
    Format/Info                              : Digital Theater Systems
    Mode                                     : 16
    Format settings, Endianness              : Big
    Codec ID                                 : A_DTS
    Duration                                 : 2 h 58 min
    Bit rate mode                            : Constant
    Bit rate                                 : 768 kb/s
    Channel(s)                               : 6 channels
    Channel positions                        : Front: L C R, Side: L R, LFE
    Sampling rate                            : 48.0 kHz
    Frame rate                               : 93.750 FPS (512 SPF)
    Bit depth                                : 24 bits
    Compression mode                         : Lossy
    Stream size                              : 980 MiB (7%)
    Language                                 : Spanish
    Default                                  : Yes
    Forced                                   : No
    Statistics Tags Issue                    : mkvmerge v15.0.0 ('Duel with the Devil') 64-bit 2018-05-23 20:23:11 / mkvmerge v15.0.0 ('Duel with the Devil') 64-bit 2018-05-23 20:23:11 / UTC 2018-05-23T03:09:24Z
    FromStats_BitRate                        : 767999
    FromStats_Duration                       : 02:58:20.171000000
    FromStats_FrameCount                     : 1003141
    FromStats_StreamSize                     : 1027216384

    Audio #2
    ID                                       : 3
    Format                                   : DTS
    Format/Info                              : Digital Theater Systems
    Mode                                     : 16
    Format settings, Endianness              : Big
    Codec ID                                 : A_DTS
    Duration                                 : 2 h 58 min
    Bit rate mode                            : Constant
    Bit rate                                 : 1 509 kb/s
    Channel(s)                               : 6 channels
    Channel positions                        : Front: L C R, Side: L R, LFE
    Sampling rate                            : 48.0 kHz
    Frame rate                               : 93.750 FPS (512 SPF)
    Bit depth                                : 24 bits
    Compression mode                         : Lossy
    Stream size                              : 1.88 GiB (14%)
    Language                                 : English
    Default                                  : No
    Forced                                   : No
    Statistics Tags Issue                    : mkvmerge v15.0.0 ('Duel with the Devil') 64-bit 2018-05-23 20:23:11 / mkvmerge v15.0.0 ('Duel with the Devil') 64-bit 2018-05-23 20:23:11 / UTC 2018-05-23T03:09:24Z
    FromStats_BitRate                        : 1508999
    FromStats_Duration                       : 02:58:20.171000000
    FromStats_FrameCount                     : 1003141
    FromStats_StreamSize                     : 2018319692

    Text #1
    ID                                       : 4
    Format                                   : PGS
    Muxing mode                              : zlib
    Codec ID                                 : S_HDMV/PGS
    Codec ID/Info                            : Picture based subtitle format used on BDs/HD-DVDs
    Language                                 : English
    Default                                  : No
    Forced                                   : No
    Statistics Tags Issue                    : mkvmerge v15.0.0 ('Duel with the Devil') 64-bit 2018-05-23 20:23:11 / mkvmerge v15.0.0 ('Duel with the Devil') 64-bit 2018-05-23 20:23:11 / UTC 2018-05-23T03:09:24Z
    FromStats_BitRate                        : 55789
    FromStats_Duration                       : 02:55:20.802000000
    FromStats_FrameCount                     : 7285
    FromStats_StreamSize                     : 73368353

    Text #2
    ID                                       : 5
    Format                                   : PGS
    Muxing mode                              : zlib
    Codec ID                                 : S_HDMV/PGS
    Codec ID/Info                            : Picture based subtitle format used on BDs/HD-DVDs
    Language                                 : Spanish
    Default                                  : No
    Forced                                   : No
    Statistics Tags Issue                    : mkvmerge v15.0.0 ('Duel with the Devil') 64-bit 2018-05-23 20:23:11 / mkvmerge v15.0.0 ('Duel with the Devil') 64-bit 2018-05-23 20:23:11 / UTC 2018-05-23T03:09:24Z
    FromStats_BitRate                        : 39249
    FromStats_Duration                       : 02:55:43.074000000
    FromStats_FrameCount                     : 5249
    FromStats_StreamSize                     : 51726218

    Menu
    00:00:00.000                             : :Chapter 1
    00:04:55.462                             : :Chapter 2
    00:21:58.192                             : :Chapter 3
    00:27:49.543                             : :Chapter 4
    00:33:46.650                             : :Chapter 5
    00:38:57.126                             : :Chapter 6
    00:58:23.000                             : :Chapter 7
    01:06:11.134                             : :Chapter 8
    01:26:24.513                             : :Chapter 9
    01:31:49.546                             : :Chapter 10
    02:00:29.305                             : :Chapter 11
    02:14:10.209                             : :Chapter 12
    02:28:31.486                             : :Chapter 13
    02:39:55.586                             : :Chapter 14
    02:46:56.340                             : :Chapter 15
    02:50:12.077                             : :Chapter 16

  • Peso: 13.4 GiB

Sinopsis

Las Vegas, 1973. Sam “Ace” Rothstein, un profesional de las apuestas, es el eficaz director de un importante casino que pertenece a un grupo de mafiosos. Su misión es controlar el funcionamiento del negocio y garantizar que la corriente de dinero que va a parar a manos de sus jefes siga fluyendo. Las Vegas es un lugar ideal para millonarios y políticos, pero es también lugar de paso de tahúres, prestamistas, traficantes de drogas y matones. Un día el violento Nicky Santoro, al que sus jefes han encargado que cuide de Sam, llega a Las Vegas con la intención de quedarse.

Ficha técnica

Video trailer de la película

Enlaces de descarga

Rip de Bluray

Descargar Casino (1995) Full 1080p Latino




Aportes de DPeliculasHDmega la pass es:dpeliculashdmega.org Aportes de CinemaniaHD la pass es:cinemaniahdd.com
Guardado en : Crimen , Drama , FULL 1080p Plateadas

Películas relacionadas

Comentarios 0