Capitán América el primer vengador (2011) Full 1080p Latino | CinemaniaHD - Descargar Peliculas 1080p Mega Google Drive

Capitán América el primer vengador (2011) Full 1080p Latino

2.268 vistas
1 estrella2 estrellas3 estrellas4 estrellas5 estrellas (5 votos, promedio: 3,40 de 5)
Cargando…

Información de Capitán América el primer vengador (2011) Full 1080p Latino

Datos de la película

  • Calidad: Full 1080p
  • Audio: Español Latino AC3 5.1 BLURAY - Ingles DTS 5.1 BLURAY
  • Subtitulos: Español Latino PGS - Ingles PGS
  • Resolución: 1920x1080p
  • Formato: MKV
  • Codec: H.264
  • Encoder: Dracarys
  • Mediainfo: Clic para Mostrar Datos Ver
  • Format                                   : Matroska
    Format version                           : Version 4 / Version 2
    File size                                : 6.69 GiB
    Duration                                 : 2 h 4 min
    Overall bit rate                         : 7 711 kb/s
    Movie name                               : CinemaniaHDD.com
    Encoded date                             : UTC 2018-04-12 18:52:29 / UTC 2018-04-11T07:51:37Z
    Writing application                      : mkvmerge v15.0.0 ('Duel with the Devil') 64-bit
    Writing library                          : libebml v1.3.5 + libmatroska v1.4.5 / Lavf57.7.2

    Video
    ID                                       : 1
    Format                                   : AVC
    Format/Info                              : Advanced Video Codec
    Format profile                           : High@L4.1
    Format settings                          : CABAC / 4 Ref Frames
    Format settings, CABAC                   : Yes
    Format settings, RefFrames               : 4 frames
    Codec ID                                 : V_MPEG4/ISO/AVC
    Duration                                 : 2 h 4 min
    Bit rate                                 : 5 408 kb/s
    Width                                    : 1 920 pixels
    Height                                   : 1 080 pixels
    Display aspect ratio                     : 16:9
    Frame rate mode                          : Constant
    Frame rate                               : 23.976 (24000/1001) FPS
    Color space                              : YUV
    Chroma subsampling                       : 4:2:0
    Bit depth                                : 8 bits
    Scan type                                : Progressive
    Bits/(Pixel*Frame)                       : 0.109
    Stream size                              : 4.69 GiB (70%)
    Title                                    : Capitán América el primer vengador (2011) Full 1080p Latino
    Writing library                          : x264 core 148 r2708 86b7198
    Encoding settings                        : cabac=1 / ref=4 / deblock=1:0:0 / analyse=0x3:0x133 / me=esa / subme=9 / psy=1 / psy_rd=1.00:0.00 / mixed_ref=1 / me_range=16 / chroma_me=1 / trellis=2 / 8x8dct=1 / cqm=0 / deadzone=21,11 / fast_pskip=1 / chroma_qp_offset=-2 / threads=34 / lookahead_threads=2 / sliced_threads=0 / nr=0 / decimate=1 / interlaced=0 / bluray_compat=0 / constrained_intra=0 / bframes=3 / b_pyramid=2 / b_adapt=2 / b_bias=0 / direct=3 / weightb=1 / open_gop=0 / weightp=2 / keyint=240 / keyint_min=24 / scenecut=40 / intra_refresh=0 / rc_lookahead=60 / rc=crf / mbtree=1 / crf=20.0 / qcomp=0.60 / qpmin=0 / qpmax=69 / qpstep=4 / vbv_maxrate=62500 / vbv_bufsize=78125 / crf_max=0.0 / nal_hrd=none / filler=0 / ip_ratio=1.40 / aq=1:1.00
    Language                                 : English
    Default                                  : Yes
    Forced                                   : No
    Color range                              : Limited
    Color primaries                          : BT.709
    Transfer characteristics                 : BT.709
    Matrix coefficients                      : BT.709
    Statistics Tags Issue                    : mkvmerge v15.0.0 ('Duel with the Devil') 64-bit 2018-04-12 18:52:29 / mkvmerge v15.0.0 ('Duel with the Devil') 64-bit 2018-04-12 18:52:29 / UTC 2018-04-11T07:51:37Z
    FromStats_BitRate                        : 5543351
    FromStats_Duration                       : 02:04:11.569000000
    FromStats_FrameCount                     : 178659
    FromStats_StreamSize                     : 5163332973

    Audio #1
    ID                                       : 2
    Format                                   : AC-3
    Format/Info                              : Audio Coding 3
    Format settings, Endianness              : Big
    Codec ID                                 : A_AC3
    Duration                                 : 2 h 4 min
    Bit rate mode                            : Constant
    Bit rate                                 : 640 kb/s
    Channel(s)                               : 6 channels
    Channel positions                        : Front: L C R, Side: L R, LFE
    Sampling rate                            : 48.0 kHz
    Frame rate                               : 31.250 FPS (1536 SPF)
    Bit depth                                : 16 bits
    Compression mode                         : Lossy
    Stream size                              : 569 MiB (8%)
    Language                                 : Spanish
    Service kind                             : Complete Main
    Default                                  : Yes
    Forced                                   : No
    Statistics Tags Issue                    : mkvmerge v15.0.0 ('Duel with the Devil') 64-bit 2018-04-12 18:52:29 / mkvmerge v15.0.0 ('Duel with the Devil') 64-bit 2018-04-12 18:52:29 / UTC 2018-04-11T07:51:37Z
    FromStats_BitRate                        : 640000
    FromStats_Duration                       : 02:04:11.616000000
    FromStats_FrameCount                     : 232863
    FromStats_StreamSize                     : 596129280

    Audio #2
    ID                                       : 3
    Format                                   : DTS
    Format/Info                              : Digital Theater Systems
    Mode                                     : 16
    Format settings, Endianness              : Big
    Codec ID                                 : A_DTS
    Duration                                 : 2 h 4 min
    Bit rate mode                            : Constant
    Bit rate                                 : 1 509 kb/s
    Channel(s)                               : 6 channels
    Channel positions                        : Front: L C R, Side: L R, LFE
    Sampling rate                            : 48.0 kHz
    Frame rate                               : 93.750 FPS (512 SPF)
    Bit depth                                : 24 bits
    Compression mode                         : Lossy
    Stream size                              : 1.31 GiB (20%)
    Language                                 : English
    Default                                  : No
    Forced                                   : No
    Statistics Tags Issue                    : mkvmerge v15.0.0 ('Duel with the Devil') 64-bit 2018-04-12 18:52:29 / mkvmerge v15.0.0 ('Duel with the Devil') 64-bit 2018-04-12 18:52:29 / UTC 2018-04-11T07:51:37Z
    FromStats_BitRate                        : 1508999
    FromStats_Duration                       : 02:04:11.606000000
    FromStats_FrameCount                     : 698588
    FromStats_StreamSize                     : 1405559056

    Text #1
    ID                                       : 4
    Format                                   : UTF-8
    Codec ID                                 : S_TEXT/UTF8
    Codec ID/Info                            : UTF-8 Plain Text
    Title                                    : Forzados Latino-SRT
    Language                                 : Spanish
    Default                                  : Yes
    Forced                                   : Yes
    Statistics Tags Issue                    : mkvmerge v15.0.0 ('Duel with the Devil') 64-bit 2018-04-12 18:52:29 / mkvmerge v15.0.0 ('Duel with the Devil') 64-bit 2018-04-12 18:52:29 / UTC 2018-04-11T07:51:37Z
    FromStats_BitRate                        : 0
    FromStats_Duration                       : 02:00:19.045000000
    FromStats_FrameCount                     : 16
    FromStats_StreamSize                     : 354

    Text #2
    ID                                       : 5
    Format                                   : PGS
    Muxing mode                              : zlib
    Codec ID                                 : S_HDMV/PGS
    Codec ID/Info                            : Picture based subtitle format used on BDs/HD-DVDs
    Title                                    : Ingles
    Language                                 : English
    Default                                  : No
    Forced                                   : No
    Statistics Tags Issue                    : mkvmerge v15.0.0 ('Duel with the Devil') 64-bit 2018-04-12 18:52:29 / mkvmerge v15.0.0 ('Duel with the Devil') 64-bit 2018-04-12 18:52:29 / UTC 2018-04-11T07:51:37Z
    FromStats_BitRate                        : 27444
    FromStats_Duration                       : 02:02:41.271000000
    FromStats_FrameCount                     : 2408
    FromStats_StreamSize                     : 25253656

    Text #3
    ID                                       : 6
    Format                                   : PGS
    Muxing mode                              : zlib
    Codec ID                                 : S_HDMV/PGS
    Codec ID/Info                            : Picture based subtitle format used on BDs/HD-DVDs
    Title                                    : Latino
    Language                                 : Spanish
    Default                                  : No
    Forced                                   : No
    Statistics Tags Issue                    : mkvmerge v15.0.0 ('Duel with the Devil') 64-bit 2018-04-12 18:52:29 / mkvmerge v15.0.0 ('Duel with the Devil') 64-bit 2018-04-12 18:52:29 / UTC 2018-04-11T07:51:37Z
    FromStats_BitRate                        : 25128
    FromStats_Duration                       : 02:02:45.525000000
    FromStats_FrameCount                     : 2316
    FromStats_StreamSize                     : 23135890

    Menu
    00:00:00.000                             : :Chapter 1
    00:08:12.158                             : :Chapter 2
    00:14:56.813                             : :Chapter 3
    00:24:21.543                             : :Chapter 4
    00:30:38.962                             : :Chapter 5
    00:38:39.859                             : :Chapter 6
    00:45:52.166                             : :Chapter 7
    00:51:58.157                             : :Chapter 8
    00:57:55.639                             : :Chapter 9
    01:03:59.294                             : :Chapter 10
    01:12:22.588                             : :Chapter 11
    01:19:10.663                             : :Chapter 12
    01:28:27.052                             : :Chapter 13
    01:33:53.002                             : :Chapter 14
    01:42:20.343                             : :Chapter 15
    01:50:45.055                             : :Chapter 16
    01:53:46.320                             : :Chapter 17

  • Peso: 6.69 GiB

Sinopsis

Nacido durante la Gran Depresión, Steve Rogers creció como un chico enclenque en una familia pobre. Horrorizado por las noticias que llegaban de Europa sobre los nazis, decidió enrolarse en el ejército; sin embargo, debido a su precaria salud, fue rechazado una y otra vez. Enternecido por sus súplicas, el General Chester Phillips le ofrece la oportunidad de tomar parte en un experimento especial. la “Operación Renacimiento”. Después de administrarle el “Suero Super-Soldado” y bombardearlo con “vita-rayos”, el cuerpo de Steve se hace perfecto. Posteriormente, es sometido a un intensivo programa de entrenamiento físico y táctico. Tres meses después, recibe su primera misión como Capitán América. Armado con un escudo indestructible y su inteligencia para la batalla, el Capitán América emprende la guerra contra el mal, como centinela de la libertad y como líder de los Vengadores.

Ficha técnica

Video trailer de la película

Enlaces de descarga

Rip de Bluray

Descargar Capitán América el primer vengador (2011) Full 1080p Latino




Aportes de DPeliculasHDmega la pass es:dpeliculashdmega.org Aportes de CinemaniaHD la pass es:cinemaniahdd.com

Películas relacionadas

  • Ralph El Demoledor (2012) Full 1080p Latino

    2012
    Ralph El Demoledor (2012) Full 1080p Latino

    0.0 1h 41m 2012

    Durante décadas, Ralph ha vivido a la sombra de Repara-Félix Jr., el chico bueno de su videojuego....

    Director: Rob Dressel

    Género: Animación

    Actores: Will Deters

  • La leyenda del gigante de la montaña (2018) 1080p Latino

    2017
    La leyenda del gigante de la montaña (2018) 1080p Latino

    0.0 2h 0m 2017

    Espen "Ash Lad", un pobre hijo de granjero, se embarca en una peligrosa aventura con sus hermanos para...

    Director: Mikkel Brænne Sandemose

    Género: 1080p Portada Negra

    Actores: Vebjørn Enger

  • La jungla (2017) 1080p Latino

    2017
    La jungla (2017) 1080p Latino

    0.0 1h 55m 2017

    Cuenta la historia real de Yossi Ghinsberg, un joven aventurero que vivió para escribir un bestseller...

    Director: Greg McLean

    Género: 1080p Portada Negra

    Actores: Yasmin Kassim

  • Big Fish & Begonia (2018) NF 1080p Latino

    2016
    Big Fish & Begonia (2018) NF 1080p Latino

    0.0 1h 30m 2016

    En un universo más allá del nuestro, Chun celebra su decimosexto aniversario cumpliendo una tradición...

    Director: Zhang Chun

    Género: Animación

    Actores: Zhang Jie

Comentarios 1
  • ocpgaiden - 13 abril, 2018

    Soy fan de Marvel, gracias por la pelicula