Call Me by Your Name (2017) Full 1080p Latino | CinemaniaHD - Descargar Peliculas 1080p Mega Google Drive

Call Me by Your Name (2017) Full 1080p Latino

953 vistas
1 estrella2 estrellas3 estrellas4 estrellas5 estrellas (2 votos, promedio: 3,00 de 5)
Cargando…

Información de Call Me by Your Name (2017) Full 1080p Latino

Datos de la película

  • Calidad: Full 1080p
  • Audio: Español Latino AC3 5.1 BLURAY - Ingles DTS 5.1 BLURAY
  • Subtitulos: Español Latino PGS - Ingles PGS
  • Resolución: 1920X1080p
  • Formato: MKV
  • Codec: H.264
  • Encoder: Dracarys
  • Mediainfo: Clic para Mostrar Datos Ver
  • Format                                   : Matroska
    Format version                           : Version 4 / Version 2
    File size                                : 10.0 GiB
    Duration                                 : 2 h 12 min
    Overall bit rate                         : 10.9 Mb/s
    Movie name                               : CinemaniaHDD.com
    Encoded date                             : UTC 2018-03-07 18:09:56 / UTC 2018-03-07T08:59:58Z
    Writing application                      : mkvmerge v15.0.0 ('Duel with the Devil') 64-bit
    Writing library                          : libebml v1.3.5 + libmatroska v1.4.5 / Lavf57.7.2

    Video
    ID                                       : 1
    Format                                   : AVC
    Format/Info                              : Advanced Video Codec
    Format profile                           : High@L4.1
    Format settings                          : CABAC / 4 Ref Frames
    Format settings, CABAC                   : Yes
    Format settings, RefFrames               : 4 frames
    Codec ID                                 : V_MPEG4/ISO/AVC
    Duration                                 : 2 h 12 min
    Bit rate                                 : 8 504 kb/s
    Width                                    : 1 920 pixels
    Height                                   : 1 080 pixels
    Display aspect ratio                     : 16:9
    Frame rate mode                          : Constant
    Frame rate                               : 23.976 (24000/1001) FPS
    Color space                              : YUV
    Chroma subsampling                       : 4:2:0
    Bit depth                                : 8 bits
    Scan type                                : Progressive
    Bits/(Pixel*Frame)                       : 0.171
    Stream size                              : 7.84 GiB (78%)
    Title                                    : Call Me by Your Name (2017) Full 1080p Latino
    Writing library                          : x264 core 148 r2708 86b7198
    Encoding settings                        : cabac=1 / ref=4 / deblock=1:0:0 / analyse=0x3:0x133 / me=esa / subme=10 / psy=1 / psy_rd=1.00:0.00 / mixed_ref=1 / me_range=24 / chroma_me=1 / trellis=2 / 8x8dct=1 / cqm=0 / deadzone=21,11 / fast_pskip=1 / chroma_qp_offset=-2 / threads=34 / lookahead_threads=5 / sliced_threads=0 / nr=0 / decimate=1 / interlaced=0 / bluray_compat=0 / constrained_intra=0 / bframes=8 / b_pyramid=2 / b_adapt=2 / b_bias=0 / direct=3 / weightb=1 / open_gop=0 / weightp=2 / keyint=240 / keyint_min=24 / scenecut=40 / intra_refresh=0 / rc_lookahead=60 / rc=crf / mbtree=1 / crf=20.0 / qcomp=0.60 / qpmin=0 / qpmax=69 / qpstep=4 / vbv_maxrate=62500 / vbv_bufsize=78125 / crf_max=0.0 / nal_hrd=none / filler=0 / ip_ratio=1.40 / aq=1:1.00
    Language                                 : English
    Default                                  : Yes
    Forced                                   : No
    Color range                              : Limited
    Color primaries                          : BT.709
    Transfer characteristics                 : BT.709
    Matrix coefficients                      : BT.709
    Statistics Tags Issue                    : mkvmerge v15.0.0 ('Duel with the Devil') 64-bit 2018-03-07 18:09:56 / mkvmerge v15.0.0 ('Duel with the Devil') 64-bit 2018-03-07 18:09:56 / UTC 2018-03-07T08:59:58Z
    FromStats_BitRate                        : 8710436
    FromStats_Duration                       : 02:12:00.329000000
    FromStats_FrameCount                     : 189898
    FromStats_StreamSize                     : 8623689913

    Audio #1
    ID                                       : 2
    Format                                   : AC-3
    Format/Info                              : Audio Coding 3
    Format settings, Endianness              : Big
    Codec ID                                 : A_AC3
    Duration                                 : 2 h 12 min
    Bit rate mode                            : Constant
    Bit rate                                 : 640 kb/s
    Channel(s)                               : 6 channels
    Channel positions                        : Front: L C R, Side: L R, LFE
    Sampling rate                            : 48.0 kHz
    Frame rate                               : 31.250 FPS (1536 SPF)
    Bit depth                                : 16 bits
    Compression mode                         : Lossy
    Stream size                              : 604 MiB (6%)
    Language                                 : Spanish
    Service kind                             : Complete Main
    Default                                  : Yes
    Forced                                   : No
    Statistics Tags Issue                    : mkvmerge v15.0.0 ('Duel with the Devil') 64-bit 2018-03-07 18:09:56 / mkvmerge v15.0.0 ('Duel with the Devil') 64-bit 2018-03-07 18:09:56 / UTC 2018-03-07T08:59:58Z
    FromStats_BitRate                        : 640000
    FromStats_Duration                       : 02:12:00.320000000
    FromStats_FrameCount                     : 247510
    FromStats_StreamSize                     : 633625600

    Audio #2
    ID                                       : 3
    Format                                   : DTS
    Format/Info                              : Digital Theater Systems
    Mode                                     : 16
    Format settings, Endianness              : Big
    Codec ID                                 : A_DTS
    Duration                                 : 2 h 12 min
    Bit rate mode                            : Constant
    Bit rate                                 : 1 509 kb/s
    Channel(s)                               : 6 channels
    Channel positions                        : Front: L C R, Side: L R, LFE
    Sampling rate                            : 48.0 kHz
    Frame rate                               : 93.750 FPS (512 SPF)
    Bit depth                                : 24 bits
    Compression mode                         : Lossy
    Stream size                              : 1.39 GiB (14%)
    Language                                 : English
    Default                                  : No
    Forced                                   : No
    Statistics Tags Issue                    : mkvmerge v15.0.0 ('Duel with the Devil') 64-bit 2018-03-07 18:09:56 / mkvmerge v15.0.0 ('Duel with the Devil') 64-bit 2018-03-07 18:09:56 / UTC 2018-03-07T08:59:58Z
    FromStats_BitRate                        : 1508999
    FromStats_Duration                       : 02:12:00.331000000
    FromStats_FrameCount                     : 742531
    FromStats_StreamSize                     : 1493972372

    Text #1
    ID                                       : 4
    Format                                   : UTF-8
    Codec ID                                 : S_TEXT/UTF8
    Codec ID/Info                            : UTF-8 Plain Text
    Title                                    : SRT-Forzados
    Language                                 : Spanish
    Default                                  : Yes
    Forced                                   : Yes
    Statistics Tags Issue                    : mkvmerge v15.0.0 ('Duel with the Devil') 64-bit 2018-03-07 18:09:56 / mkvmerge v15.0.0 ('Duel with the Devil') 64-bit 2018-03-07 18:09:56 / UTC 2018-03-07T08:59:58Z
    FromStats_BitRate                        : 7
    FromStats_Duration                       : 02:09:12.912000000
    FromStats_FrameCount                     : 291
    FromStats_StreamSize                     : 7023

    Text #2
    ID                                       : 5
    Format                                   : PGS
    Muxing mode                              : zlib
    Codec ID                                 : S_HDMV/PGS
    Codec ID/Info                            : Picture based subtitle format used on BDs/HD-DVDs
    Language                                 : English
    Default                                  : No
    Forced                                   : No
    Statistics Tags Issue                    : mkvmerge v15.0.0 ('Duel with the Devil') 64-bit 2018-03-07 18:09:56 / mkvmerge v15.0.0 ('Duel with the Devil') 64-bit 2018-03-07 18:09:56 / UTC 2018-03-07T08:59:58Z
    FromStats_BitRate                        : 4554
    FromStats_Duration                       : 02:01:30.867000000
    FromStats_FrameCount                     : 530
    FromStats_StreamSize                     : 4150836

    Text #3
    ID                                       : 6
    Format                                   : PGS
    Muxing mode                              : zlib
    Codec ID                                 : S_HDMV/PGS
    Codec ID/Info                            : Picture based subtitle format used on BDs/HD-DVDs
    Language                                 : Spanish
    Default                                  : No
    Forced                                   : No
    Statistics Tags Issue                    : mkvmerge v15.0.0 ('Duel with the Devil') 64-bit 2018-03-07 18:09:56 / mkvmerge v15.0.0 ('Duel with the Devil') 64-bit 2018-03-07 18:09:56 / UTC 2018-03-07T08:59:58Z
    FromStats_BitRate                        : 18157
    FromStats_Duration                       : 02:09:12.912000000
    FromStats_FrameCount                     : 2052
    FromStats_StreamSize                     : 17596875

    Menu
    00:00:00.000                             : :Chapter 1
    00:07:29.574                             : :Chapter 2
    00:16:14.599                             : :Chapter 3
    00:24:56.495                             : :Chapter 4
    00:32:32.576                             : :Chapter 5
    00:42:17.035                             : :Chapter 6
    00:51:09.149                             : :Chapter 7
    01:00:13.652                             : :Chapter 8
    01:07:01.893                             : :Chapter 9
    01:16:50.272                             : :Chapter 10
    01:23:55.906                             : :Chapter 11
    01:31:20.976                             : :Chapter 12
    01:37:58.873                             : :Chapter 13
    01:46:57.494                             : :Chapter 14
    01:54:29.237                             : :Chapter 15
    02:02:29.592                             : :Chapter 16

  • Peso: 10.0 GiB

Sinopsis

Elio Perlman (Timothée Chalamet), un joven de 17 años, pasa el cálido y soleado verano de 1983 en la casa de campo de sus padres en el norte de Italia. Se pasa el tiempo holgazaneando, escuchando música, leyendo libros y nadando hasta que un día el nuevo ayudante americano de su padre llega a la gran villa. Oliver (Armie Hammer) es encantador y, como Elio, tiene raíces judías; también es joven, seguro de sí mismo y atractivo. Al principio Elio se muestra algo frío y distante hacia el joven, pero pronto ambos empiezan a salir juntos de excursión y, conforme el verano avanza, la atracción mutua de la pareja se hace más intensa.

Ficha técnica

Video trailer de la película

Enlaces de descarga

Rip de Bluray

Descargar Call Me by Your Name (2017) Full 1080p Latino




Aportes de DPeliculasHDmega la pass es:dpeliculashdmega.org Aportes de CinemaniaHD la pass es:cinemaniahdd.com

Películas relacionadas

  • Ralph El Demoledor (2012) Full 1080p Latino

    2012
    Ralph El Demoledor (2012) Full 1080p Latino

    0.0 1h 41m 2012

    Durante décadas, Ralph ha vivido a la sombra de Repara-Félix Jr., el chico bueno de su videojuego....

    Director: Rob Dressel

    Género: Animación

    Actores: Will Deters

  • La jungla (2017) 1080p Latino

    2017
    La jungla (2017) 1080p Latino

    0.0 1h 55m 2017

    Cuenta la historia real de Yossi Ghinsberg, un joven aventurero que vivió para escribir un bestseller...

    Director: Greg McLean

    Género: 1080p Portada Negra

    Actores: Yasmin Kassim

  • V/H/S: (2014) Full 1080p Subtitulado

    2014
    V/H/S: (2014) Full 1080p Subtitulado

    4.2 1 h 21 min 2014

    Un camión está causando el caos en la calle, atropellando a todo aquel que se cruza en su camino. Mientras...

    Director: Todd Lincoln

    Género: FULL 1080p Plateadas

    Actores: Nick Blanco

  • V/H/S Las crónicas del miedo 2 (2013) Full 1080p Latino

    2013
    V/H/S Las crónicas del miedo 2 (2013) Full 1080p Latino

    4.3 1h 35m 2013

    Secuela de V/H/S (2012). Buscando a un estudiante desaparecido, dos investigadores privados irrumpen...

    Director: Timo Tjahjanto

    Género: FULL 1080p Plateadas

    Actores: Samantha Gracie

Comentarios 2
  • Gay Williams - 08 marzo, 2018

    Uy! Qué peliculon ! Con esto nos recalentamos mi pareja y yo en el cine… gracias por compartir, espero conocerlos personalmente asi nos calentamos juntos. A ustedes también les gusta la peli ?????

  • Diodark96 - 07 marzo, 2018

    Gracias por tremendo aporte 😀