Busco mi destino (1969) Full 1080p Latino

553 vistas
1 estrella2 estrellas3 estrellas4 estrellas5 estrellas (Ninguna valoración todavía)
Cargando…

Información de Busco mi destino (1969) Full 1080p Latino

Datos de la película

  • Calidad: Full 1080p
  • Audio: Español Latino AC3 5.1 BLURAY - Ingles AC3 5.1 BLURAY
  • Subtitulos: Español Latino PGS - Ingles PGS
  • Resolución: 1920x1080p
  • Formato: MKV
  • Codec: H.264
  • Encoder: Dracarys
  • Mediainfo: Clic para Mostrar Datos Ver
  • Format                                   : Matroska
    Format version                           : Version 4 / Version 2
    File size                                : 11.1 GiB
    Duration                                 : 1 h 35 min
    Overall bit rate                         : 16.6 Mb/s
    Movie name                               : CinemaniaHDD.com
    Encoded date                             : UTC 2018-04-26 19:25:57 / UTC 2018-04-22T19:58:56Z
    Writing application                      : mkvmerge v15.0.0 ('Duel with the Devil') 64-bit
    Writing library                          : libebml v1.3.5 + libmatroska v1.4.5 / Lavf57.7.2

    Video
    ID                                       : 1
    Format                                   : AVC
    Format/Info                              : Advanced Video Codec
    Format profile                           : High@L4.1
    Format settings                          : CABAC / 4 Ref Frames
    Format settings, CABAC                   : Yes
    Format settings, RefFrames               : 4 frames
    Codec ID                                 : V_MPEG4/ISO/AVC
    Duration                                 : 1 h 35 min
    Bit rate                                 : 15.0 Mb/s
    Width                                    : 1 920 pixels
    Height                                   : 1 080 pixels
    Display aspect ratio                     : 16:9
    Frame rate mode                          : Constant
    Frame rate                               : 23.976 (24000/1001) FPS
    Color space                              : YUV
    Chroma subsampling                       : 4:2:0
    Bit depth                                : 8 bits
    Scan type                                : Progressive
    Bits/(Pixel*Frame)                       : 0.302
    Stream size                              : 10.0 GiB (90%)
    Title                                    : Busco mi destino (1969) Full 1080p Latino
    Writing library                          : x264 core 148 r2708 86b7198
    Encoding settings                        : cabac=1 / ref=4 / deblock=1:0:0 / analyse=0x3:0x133 / me=esa / subme=9 / psy=1 / psy_rd=1.00:0.00 / mixed_ref=1 / me_range=16 / chroma_me=1 / trellis=2 / 8x8dct=1 / cqm=0 / deadzone=21,11 / fast_pskip=1 / chroma_qp_offset=-2 / threads=34 / lookahead_threads=2 / sliced_threads=0 / nr=0 / decimate=1 / interlaced=0 / bluray_compat=0 / constrained_intra=0 / bframes=3 / b_pyramid=2 / b_adapt=2 / b_bias=0 / direct=3 / weightb=1 / open_gop=0 / weightp=2 / keyint=240 / keyint_min=24 / scenecut=40 / intra_refresh=0 / rc_lookahead=60 / rc=crf / mbtree=1 / crf=20.0 / qcomp=0.60 / qpmin=0 / qpmax=69 / qpstep=4 / vbv_maxrate=62500 / vbv_bufsize=78125 / crf_max=0.0 / nal_hrd=none / filler=0 / ip_ratio=1.40 / aq=1:1.00
    Language                                 : English
    Default                                  : Yes
    Forced                                   : No
    Color range                              : Limited
    Color primaries                          : BT.709
    Transfer characteristics                 : BT.709
    Matrix coefficients                      : BT.709
    Statistics Tags Issue                    : mkvmerge v15.0.0 ('Duel with the Devil') 64-bit 2018-04-26 19:25:57 / mkvmerge v15.0.0 ('Duel with the Devil') 64-bit 2018-04-26 19:25:57 / UTC 2018-04-22T19:58:56Z
    FromStats_BitRate                        : 15340091
    FromStats_Duration                       : 01:35:33.687000000
    FromStats_FrameCount                     : 137471
    FromStats_StreamSize                     : 10994410429

    Audio #1
    ID                                       : 2
    Format                                   : AC-3
    Format/Info                              : Audio Coding 3
    Format settings, Endianness              : Big
    Codec ID                                 : A_AC3
    Duration                                 : 1 h 35 min
    Bit rate mode                            : Constant
    Bit rate                                 : 640 kb/s
    Channel(s)                               : 6 channels
    Channel positions                        : Front: L C R, Side: L R, LFE
    Sampling rate                            : 48.0 kHz
    Frame rate                               : 31.250 FPS (1536 SPF)
    Bit depth                                : 16 bits
    Compression mode                         : Lossy
    Stream size                              : 437 MiB (4%)
    Language                                 : Spanish
    Service kind                             : Complete Main
    Default                                  : Yes
    Forced                                   : No
    Statistics Tags Issue                    : mkvmerge v15.0.0 ('Duel with the Devil') 64-bit 2018-04-26 19:25:57 / mkvmerge v15.0.0 ('Duel with the Devil') 64-bit 2018-04-26 19:25:57 / UTC 2018-04-22T19:58:56Z
    FromStats_BitRate                        : 640000
    FromStats_Duration                       : 01:35:33.728000000
    FromStats_FrameCount                     : 179179
    FromStats_StreamSize                     : 458698240

    Audio #2
    ID                                       : 3
    Format                                   : AC-3
    Format/Info                              : Audio Coding 3
    Format settings, Endianness              : Big
    Codec ID                                 : A_AC3
    Duration                                 : 1 h 35 min
    Bit rate mode                            : Constant
    Bit rate                                 : 640 kb/s
    Channel(s)                               : 6 channels
    Channel positions                        : Front: L C R, Side: L R, LFE
    Sampling rate                            : 48.0 kHz
    Frame rate                               : 31.250 FPS (1536 SPF)
    Bit depth                                : 16 bits
    Compression mode                         : Lossy
    Stream size                              : 437 MiB (4%)
    Language                                 : English
    Service kind                             : Complete Main
    Default                                  : No
    Forced                                   : No
    Statistics Tags Issue                    : mkvmerge v15.0.0 ('Duel with the Devil') 64-bit 2018-04-26 19:25:57 / mkvmerge v15.0.0 ('Duel with the Devil') 64-bit 2018-04-26 19:25:57 / UTC 2018-04-22T19:58:56Z
    FromStats_BitRate                        : 640000
    FromStats_Duration                       : 01:35:33.728000000
    FromStats_FrameCount                     : 179179
    FromStats_StreamSize                     : 458698240

    Text #1
    ID                                       : 4
    Format                                   : PGS
    Muxing mode                              : zlib
    Codec ID                                 : S_HDMV/PGS
    Codec ID/Info                            : Picture based subtitle format used on BDs/HD-DVDs
    Language                                 : English
    Default                                  : No
    Forced                                   : No
    Statistics Tags Issue                    : mkvmerge v15.0.0 ('Duel with the Devil') 64-bit 2018-04-26 19:25:57 / mkvmerge v15.0.0 ('Duel with the Devil') 64-bit 2018-04-26 19:25:57 / UTC 2018-04-22T19:58:56Z
    FromStats_BitRate                        : 21394
    FromStats_Duration                       : 01:23:30.380000000
    FromStats_FrameCount                     : 1380
    FromStats_StreamSize                     : 13399349

    Text #2
    ID                                       : 5
    Format                                   : PGS
    Muxing mode                              : zlib
    Codec ID                                 : S_HDMV/PGS
    Codec ID/Info                            : Picture based subtitle format used on BDs/HD-DVDs
    Language                                 : Spanish
    Default                                  : No
    Forced                                   : No
    Statistics Tags Issue                    : mkvmerge v15.0.0 ('Duel with the Devil') 64-bit 2018-04-26 19:25:57 / mkvmerge v15.0.0 ('Duel with the Devil') 64-bit 2018-04-26 19:25:57 / UTC 2018-04-22T19:58:56Z
    FromStats_BitRate                        : 32692
    FromStats_Duration                       : 01:33:47.914000000
    FromStats_FrameCount                     : 2160
    FromStats_StreamSize                     : 22998999

    Menu
    00:00:00.000                             : :Chapter 1
    00:10:11.402                             : :Chapter 2
    00:16:05.590                             : :Chapter 3
    00:19:42.848                             : :Chapter 4
    00:26:48.899                             : :Chapter 5
    00:31:40.565                             : :Chapter 6
    00:35:52.651                             : :Chapter 7
    00:43:05.041                             : :Chapter 8
    00:50:08.839                             : :Chapter 9
    00:54:22.050                             : :Chapter 10
    01:01:59.674                             : :Chapter 11
    01:09:34.545                             : :Chapter 12
    01:14:23.793                             : :Chapter 13
    01:20:17.980                             : :Chapter 14
    01:28:42.192                             : :Chapter 15
    01:32:03.351                             : :Chapter 16

  • Peso: 11.1 GiB

Sinopsis

Dos jóvenes motoristas de Los Ángeles emprenden un viaje hacia Nueva Orleáns. Cruzan todo el país con la intención de descubrir América. Después de vender cocaína a un hombre de Los Ángeles, Billy y Wiatt (alias Capitán América) asisten a la fiesta del Mardî Gras. Pronto reanudan el viaje y se van encontrando con personajes de lo más estrafalario, entre ellos un ranchero y su familia, o un autoestopista de una comuna hippie, antes de ser arrestados en un pueblecito por parar sin un permiso. Su compañero de celda, un abogado borracho, les hace un gran favor sacándoles de la cárcel y luego decide unirse a ellos.

Ficha técnica

Video trailer de la película

Enlaces de descarga

Rip de Bluray

Descargar Busco mi destino (1969) Full 1080p Latino




Aportes de DPeliculasHDmega la pass es:dpeliculashdmega.org Aportes de CinemaniaHD la pass es:cinemaniahdd.com

Películas relacionadas

Comentarios 0