Blame (2017) WEBDL Latino | CinemaniaHD - Descargar Peliculas 1080p Mega Google Drive

Blame (2017) WEBDL Latino

3.075 vistas
1 estrella2 estrellas3 estrellas4 estrellas5 estrellas (1 votos, promedio: 4,00 de 5)
Cargando…

Información de Blame (2017) WEBDL Latino

Datos de la película

  • Calidad: WEBDL
  • Audio: Español Latino AC3 2.0 Netflix - Ingles AC3 5.1 Netflix
  • Subtitulos: Español Latino SRT - Ingles SRT
  • Resolución: 1920x800p
  • Formato: MKV
  • Codec: H.264
  • Encoder: Dpelis
  • Mediainfo: Clic para Mostrar Datos Ver
  • Blame.2017.1080p.1080p.Latino.mkv
    Format                      : Matroska
    Format version              : Version 4 / Version 2
    File size                   : 4.32 GiB
    Duration                    : 1 h 46 min
    Overall bit rate            : 5 837 kb/s
    Movie name                  : DPeliculasHDMega.ORG
    Encoded date                : UTC 2017-05-20 20:43:21
    Writing application         : mkvmerge v10.0.0 ('To Drown In You') 64bit
    Writing library             : libebml v1.3.4 + libmatroska v1.4.5
    Cover                       : Yes
    Attachments                 : cover.jpg / cover_land.jpg / small_cover.jpg / small_cover_land.jpg

    Video
    ID                          : 1
    Format                      : AVC
    Format/Info                 : Advanced Video Codec
    Format profile              : High@L4.1
    Format settings, CABAC      : Yes
    Format settings, ReFrames   : 5 frames
    Codec ID                    : V_MPEG4/ISO/AVC
    Duration                    : 1 h 46 min
    Bit rate                    : 5 228 kb/s
    Width                       : 1 920 pixels
    Height                      : 800 pixels
    Display aspect ratio        : 2.40:1
    Frame rate mode             : Constant
    Frame rate                  : 23.976 (24000/1001) FPS
    Color space                 : YUV
    Chroma subsampling          : 4:2:0
    Bit depth                   : 8 bits
    Scan type                   : Progressive
    Bits/(Pixel*Frame)          : 0.142
    Stream size                 : 3.87 GiB (90%)
    Writing library             : x264 core 148 r2744 b97ae06
    Encoding settings           : cabac=1 / ref=5 / deblock=1:-3:-3 / analyse=0x3:0x133 / me=umh / subme=9 / psy=1 / psy_rd=1.05:0.10 / mixed_ref=1 / me_range=48 / chroma_me=1 / trellis=2 / 8x8dct=1 / cqm=0 / deadzone=21,11 / fast_pskip=1 / chroma_qp_offset=-3 / threads=18 / lookahead_threads=1 / sliced_threads=0 / slices=4 / nr=0 / decimate=1 / interlaced=0 / bluray_compat=0 / constrained_intra=0 / bframes=3 / b_pyramid=2 / b_adapt=2 / b_bias=0 / direct=3 / weightb=1 / open_gop=0 / weightp=2 / keyint=240 / keyint_min=23 / scenecut=40 / intra_refresh=0 / rc_lookahead=60 / rc=crf / mbtree=1 / crf=14.0 / qcomp=0.60 / qpmin=0 / qpmax=69 / qpstep=4 / vbv_maxrate=16520 / vbv_bufsize=17525 / crf_max=0.0 / nal_hrd=none / filler=0 / ip_ratio=1.40 / aq=3:0.85
    Default                     : Yes
    Forced                      : No

    Audio #1
    ID                          : 2
    Format                      : AC-3
    Format/Info                 : Audio Coding 3
    Format settings, Endianness : Big
    Codec ID                    : A_AC3
    Duration                    : 1 h 45 min
    Bit rate mode               : Constant
    Bit rate                    : 224 kb/s
    Channel(s)                  : 2 channels
    Channel positions           : Front: L R
    Sampling rate               : 48.0 kHz
    Frame rate                  : 31.250 FPS (1536 spf)
    Bit depth                   : 16 bits
    Compression mode            : Lossy
    Delay relative to video     : 5 s 500 ms
    Stream size                 : 169 MiB (4%)
    Language                    : Spanish
    Service kind                : Complete Main
    Default                     : No
    Forced                      : No

    Audio #2
    ID                          : 3
    Format                      : AC-3
    Format/Info                 : Audio Coding 3
    Format settings, Endianness : Big
    Codec ID                    : A_AC3
    Duration                    : 1 h 46 min
    Bit rate mode               : Constant
    Bit rate                    : 384 kb/s
    Channel(s)                  : 6 channels
    Channel positions           : Front: L C R, Side: L R, LFE
    Sampling rate               : 48.0 kHz
    Frame rate                  : 31.250 FPS (1536 spf)
    Bit depth                   : 16 bits
    Compression mode            : Lossy
    Stream size                 : 291 MiB (7%)
    Title                       : Blame.2017.1080p.NF.WEBRip.DD5.1.x264-SB
    Language                    : English
    Service kind                : Complete Main
    Default                     : Yes
    Forced                      : No

    Text #1
    ID                          : 4
    Format                      : UTF-8
    Codec ID                    : S_TEXT/UTF8
    Codec ID/Info               : UTF-8 Plain Text
    Duration                    : 1 h 37 min
    Bit rate                    : 37 b/s
    Count of elements           : 987
    Stream size                 : 26.9 KiB (0%)
    Language                    : Spanish
    Default                     : No
    Forced                      : No

    Text #2
    ID                          : 5
    Format                      : UTF-8
    Codec ID                    : S_TEXT/UTF8
    Codec ID/Info               : UTF-8 Plain Text
    Duration                    : 1 h 45 min
    Bit rate                    : 34 b/s
    Count of elements           : 983
    Stream size                 : 26.3 KiB (0%)
    Language                    : English
    Default                     : No
    Forced                      : No

    Text #3
    ID                          : 6
    Format                      : UTF-8
    Codec ID                    : S_TEXT/UTF8
    Codec ID/Info               : UTF-8 Plain Text
    Duration                    : 10 s 100 ms
    Bit rate                    : 91 b/s
    Count of elements           : 1
    Stream size                 : 115 Bytes (0%)
    Language                    : Spanish
    Default                     : Yes
    Forced                      : No

  • Peso: 4.32 GB

Sinopsis

Descargar Blame 2017 WEBDL 1080p Latino 2.0 En un futuro lejano, donde reina el caos, Killy se embarca en una misión para rescatar del olvido una civilización en peligro de extinción. “La historia de la obra original, publicada entre 1998 y 2003, nos lleva a un futuro distópico en el que el hombre ha sido enajenada a causa de un mundo dominado por la tecnología.

Ficha técnica

Video trailer de la película

Enlaces de descarga

Descargar Blame (2017) WEBDL Latino
Aportes de DPeliculasHDmega la pass es:dpeliculashdmega.org Aportes de CinemaniaHD la pass es:cinemaniahdd.com

Películas relacionadas

  • La leyenda del gigante de la montaña (2018) 1080p Latino

    2017
    La leyenda del gigante de la montaña (2018) 1080p Latino

    0.0 2h 0m 2017

    Espen "Ash Lad", un pobre hijo de granjero, se embarca en una peligrosa aventura con sus hermanos para...

    Director: Mikkel Brænne Sandemose

    Género: 1080p Portada Negra

    Actores: Vebjørn Enger

  • La jungla (2017) 1080p Latino

    2017
    La jungla (2017) 1080p Latino

    0.0 1h 55m 2017

    Cuenta la historia real de Yossi Ghinsberg, un joven aventurero que vivió para escribir un bestseller...

    Director: Greg McLean

    Género: 1080p Portada Negra

    Actores: Yasmin Kassim

  • Big Fish & Begonia (2018) NF 1080p Latino

    2016
    Big Fish & Begonia (2018) NF 1080p Latino

    0.0 1h 30m 2016

    En un universo más allá del nuestro, Chun celebra su decimosexto aniversario cumpliendo una tradición...

    Director: Zhang Chun

    Género: Animación

    Actores: Zhang Jie

Comentarios 4
  • martin omar - 22 mayo, 2017

    llegara la caratula plateada?

    • dpelis - 22 mayo, 2017

      no estimado. esto es capturado de Netflix

  • rodrigolf - 22 mayo, 2017

    gracias, pero el sub forzado, q supongo tiene pues veo 2 subs en español en el medianfo, tiene algo de texto o son solo los créditos q se merece esta gran pagina??

    • dpelis - 22 mayo, 2017

      cuando son forzados ahi lo dice en la descripcion. solo esta latino y los creditos. saludos