Blade Runner 2049 (2017) 3D OU Full 1080p Latino

1.385 vistas
1 estrella2 estrellas3 estrellas4 estrellas5 estrellas (Ninguna valoración todavía)
Cargando…

Información de Blade Runner 2049 (2017) 3D OU Full 1080p Latino

Datos de la película

  • Calidad: Full 1080p
  • Audio: Español Latino AC3 5.1 BLURAY - Ingles DTS 5.1 BLURAY
  • Subtitulos: Español Latino PGS - Ingles PGS
  • Resolución: 1920X1080p
  • Formato: MKV
  • Codec: H.264
  • Encoder: Dracarys
  • Mediainfo: Clic para Mostrar Datos Ver
  • Format                                   : Matroska
    Format version                           : Version 4 / Version 2
    File size                                : 4.70 GiB
    Duration                                 : 2 h 43 min
    Overall bit rate                         : 4 109 kb/s
    Movie name                               : CinemaniaHDD.com
    Encoded date                             : UTC 2018-01-25 18:33:25 / UTC 2018-01-25T10:36:57Z
    Writing application                      : mkvmerge v15.0.0 ('Duel with the Devil') 64-bit
    Writing library                          : libebml v1.3.5 + libmatroska v1.4.5 / Lavf57.7.2

    Video
    ID                                       : 1
    Format                                   : AVC
    Format/Info                              : Advanced Video Codec
    Format profile                           : High@L4.1
    Format settings                          : CABAC / 4 Ref Frames
    Format settings, CABAC                   : Yes
    Format settings, RefFrames               : 4 frames
    Codec ID                                 : V_MPEG4/ISO/AVC
    Duration                                 : 2 h 43 min
    Bit rate                                 : 1 878 kb/s
    Width                                    : 1 920 pixels
    Height                                   : 1 080 pixels
    Display aspect ratio                     : 16:9
    Frame rate mode                          : Constant
    Frame rate                               : 23.976 (24000/1001) FPS
    Color space                              : YUV
    Chroma subsampling                       : 4:2:0
    Bit depth                                : 8 bits
    Scan type                                : Progressive
    Bits/(Pixel*Frame)                       : 0.038
    Stream size                              : 2.15 GiB (46%)
    Title                                    : Blade Runner 2049 (2017) 3D OU Full 1080p Latino
    Writing library                          : x264 core 148 r2708 86b7198
    Encoding settings                        : cabac=1 / ref=4 / deblock=1:0:0 / analyse=0x3:0x133 / me=esa / subme=10 / psy=1 / psy_rd=1.00:0.00 / mixed_ref=1 / me_range=24 / chroma_me=1 / trellis=2 / 8x8dct=1 / cqm=0 / deadzone=21,11 / fast_pskip=1 / chroma_qp_offset=-2 / threads=34 / lookahead_threads=5 / sliced_threads=0 / nr=0 / decimate=1 / interlaced=0 / bluray_compat=0 / constrained_intra=0 / bframes=8 / b_pyramid=2 / b_adapt=2 / b_bias=0 / direct=3 / weightb=1 / open_gop=0 / weightp=2 / keyint=240 / keyint_min=24 / scenecut=40 / intra_refresh=0 / rc_lookahead=60 / rc=crf / mbtree=1 / crf=20.0 / qcomp=0.60 / qpmin=0 / qpmax=69 / qpstep=4 / vbv_maxrate=62500 / vbv_bufsize=78125 / crf_max=0.0 / nal_hrd=none / filler=0 / ip_ratio=1.40 / aq=1:1.00
    Language                                 : English
    Default                                  : Yes
    Forced                                   : No
    Color range                              : Limited
    Color primaries                          : BT.709
    Transfer characteristics                 : BT.709
    Matrix coefficients                      : BT.709
    Statistics Tags Issue                    : mkvmerge v15.0.0 ('Duel with the Devil') 64-bit 2018-01-25 18:33:25 / mkvmerge v15.0.0 ('Duel with the Devil') 64-bit 2018-01-25 18:33:25 / UTC 2018-01-25T10:36:57Z
    FromStats_BitRate                        : 1948377
    FromStats_Duration                       : 02:43:46.692000000
    FromStats_FrameCount                     : 235605
    FromStats_StreamSize                     : 2393263570

    Audio #1
    ID                                       : 2
    Format                                   : AC-3
    Format/Info                              : Audio Coding 3
    Format settings, Endianness              : Big
    Codec ID                                 : A_AC3
    Duration                                 : 2 h 43 min
    Bit rate mode                            : Constant
    Bit rate                                 : 640 kb/s
    Channel(s)                               : 6 channels
    Channel positions                        : Front: L C R, Side: L R, LFE
    Sampling rate                            : 48.0 kHz
    Frame rate                               : 31.250 FPS (1536 SPF)
    Bit depth                                : 16 bits
    Compression mode                         : Lossy
    Stream size                              : 750 MiB (16%)
    Language                                 : Spanish
    Service kind                             : Complete Main
    Default                                  : Yes
    Forced                                   : No
    Statistics Tags Issue                    : mkvmerge v15.0.0 ('Duel with the Devil') 64-bit 2018-01-25 18:33:25 / mkvmerge v15.0.0 ('Duel with the Devil') 64-bit 2018-01-25 18:33:25 / UTC 2018-01-25T10:36:57Z
    FromStats_BitRate                        : 640000
    FromStats_Duration                       : 02:43:47.808000000
    FromStats_FrameCount                     : 307119
    FromStats_StreamSize                     : 786224640

    Audio #2
    ID                                       : 3
    Format                                   : DTS
    Format/Info                              : Digital Theater Systems
    Mode                                     : 16
    Format settings, Endianness              : Big
    Codec ID                                 : A_DTS
    Duration                                 : 2 h 43 min
    Bit rate mode                            : Constant
    Bit rate                                 : 1 509 kb/s
    Channel(s)                               : 6 channels
    Channel positions                        : Front: L C R, Side: L R, LFE
    Sampling rate                            : 48.0 kHz
    Frame rate                               : 93.750 FPS (512 SPF)
    Bit depth                                : 24 bits
    Compression mode                         : Lossy
    Stream size                              : 1.73 GiB (37%)
    Language                                 : English
    Default                                  : No
    Forced                                   : No
    Statistics Tags Issue                    : mkvmerge v15.0.0 ('Duel with the Devil') 64-bit 2018-01-25 18:33:25 / mkvmerge v15.0.0 ('Duel with the Devil') 64-bit 2018-01-25 18:33:25 / UTC 2018-01-25T10:36:57Z
    FromStats_BitRate                        : 1509000
    FromStats_Duration                       : 02:43:47.840000000
    FromStats_FrameCount                     : 921360
    FromStats_StreamSize                     : 1853776320

    Text #1
    ID                                       : 4
    Format                                   : PGS
    Muxing mode                              : zlib
    Codec ID                                 : S_HDMV/PGS
    Codec ID/Info                            : Picture based subtitle format used on BDs/HD-DVDs
    Language                                 : English
    Default                                  : No
    Forced                                   : No
    Statistics Tags Issue                    : mkvmerge v15.0.0 ('Duel with the Devil') 64-bit 2018-01-25 18:33:25 / mkvmerge v15.0.0 ('Duel with the Devil') 64-bit 2018-01-25 18:33:25 / UTC 2018-01-25T10:36:57Z
    FromStats_BitRate                        : 39176
    FromStats_Duration                       : 02:29:22.537000000
    FromStats_FrameCount                     : 2687
    FromStats_StreamSize                     : 43889910

    Text #2
    ID                                       : 5
    Format                                   : PGS
    Muxing mode                              : zlib
    Codec ID                                 : S_HDMV/PGS
    Codec ID/Info                            : Picture based subtitle format used on BDs/HD-DVDs
    Title                                    : Forzados
    Language                                 : Spanish
    Default                                  : No
    Forced                                   : No
    Statistics Tags Issue                    : mkvmerge v15.0.0 ('Duel with the Devil') 64-bit 2018-01-25 18:33:25 / mkvmerge v15.0.0 ('Duel with the Devil') 64-bit 2018-01-25 18:33:25 / UTC 2018-01-25T10:36:57Z
    FromStats_BitRate                        : 2532
    FromStats_Duration                       : 02:42:36.580000000
    FromStats_FrameCount                     : 149
    FromStats_StreamSize                     : 3088862

    Text #3
    ID                                       : 6
    Format                                   : PGS
    Muxing mode                              : zlib
    Codec ID                                 : S_HDMV/PGS
    Codec ID/Info                            : Picture based subtitle format used on BDs/HD-DVDs
    Language                                 : Spanish
    Default                                  : No
    Forced                                   : No
    Statistics Tags Issue                    : mkvmerge v15.0.0 ('Duel with the Devil') 64-bit 2018-01-25 18:33:25 / mkvmerge v15.0.0 ('Duel with the Devil') 64-bit 2018-01-25 18:33:25 / UTC 2018-01-25T10:36:57Z
    FromStats_BitRate                        : 28223
    FromStats_Duration                       : 02:42:36.580000000
    FromStats_FrameCount                     : 2048
    FromStats_StreamSize                     : 34421041

    Menu
    00:00:00.000                             : :(01)00:00:00:000
    00:12:50.270                             : :(02)00:12:50:269
    00:23:43.380                             : :(03)00:23:43:380
    00:37:14.983                             : :(04)00:37:14:982
    00:43:04.415                             : :(05)00:43:04:415
    00:49:38.601                             : :(06)00:49:38:600
    00:58:49.651                             : :(07)00:58:49:651
    01:04:24.778                             : :(08)01:04:24:777
    01:16:01.390                             : :(09)01:16:01:390
    01:25:26.580                             : :(10)01:25:26:579
    01:36:29.158                             : :(11)01:36:29:158
    01:51:09.204                             : :(12)01:51:09:204
    02:01:51.012                             : :(13)02:01:50:970
    02:08:54.477                             : :(14)02:08:54:476
    02:16:56.583                             : :(15)02:16:56:583
    02:28:00.830                             : :(16)02:28:00:830

  • Peso: 4.70 GiB

Sinopsis

Han pasado 30 años desde los acontecimientos ocurridos en Blade Runner (1982). El oficial K (Ryan Gosling), un blade runner caza-replicantes del Departamento de Policía de Los Ángeles, descubre un secreto que ha estado enterrado durante mucho tiempo y que tiene el potencial de llevar a la sociedad al caos. Su investigación le conducirá a la búsqueda del legendario Rick Deckard (Harrison Ford), un antiguo blade runner en paradero desconocido, que lleva desaparecido 30 años.

Ficha técnica

Video trailer de la película

Enlaces de descarga

Rip de Bluray

Descargar Blade Runner 2049 (2017) 3D OU Full 1080p Latino




Aportes de DPeliculasHDmega la pass es:dpeliculashdmega.org Aportes de CinemaniaHD la pass es:cinemaniahdd.com

Películas relacionadas

  • The Night Comes For Us (2018) NF 1080p Latino

    2018
    The Night Comes For Us (2018) NF 1080p Latino

    1.0 2h 1m 2018

    The Night Comes For Us (2018) NF 1080p Latino; Mega, Google Drive. Un antiguo sicario debe proteger a...

    Director: Timo Tjahjanto

    Género: Acción

    Actores: Zack Lee

  • Illang: La brigada del lobo (2018) NF 1080p Latino

    2018
    Illang: La brigada del lobo (2018) NF 1080p Latino

    1.0 2h 19m 2018

    Descargar Illang: La brigada del lobo (2018) NF 1080p Latino; Mega, Google Drive. Basada en el anime...

    Director: Kim Jee-woon

    Género: Acción

    Actores: Shin Eun-soo

  • Mentes poderosas (2018) 1080p Latino

    2018
    Mentes poderosas (2018) 1080p Latino

    1.0 1h 45m 2018

    Descargar Mentes poderosas (2018) 1080p Latino; Mega, Google Drive. Encarcelados en un mundo adulto...

    Director: Jennifer Yuh Nelson

    Género: Ciencia ficción

    Actores: William Walker

  • Paciente Cero (2018) Full 1080p Latino

    2018
    Paciente Cero (2018) Full 1080p Latino

    3.7 1h 26m 2018

    Paciente Cero (2018) Full 1080p Latino; Mega, Google Drive. Tras una pandemia sin precedentes, la Humanidad...

    Director: Stefan Ruzowitzky

    Género: Acción

    Actores: Yumiko Hanasaka

  • Paciente Cero (2018) 1080p Latino

    2018
    Paciente Cero (2018) 1080p Latino

    1.0 1h 26m 2018

    Descargar Paciente Cero (2018) 1080p Latino; Mega, Google Drive. Tras una pandemia sin precedentes, la...

    Director: Stefan Ruzowitzky

    Género: Acción

    Actores: Yumiko Hanasaka

Comentarios 1
  • Jean Karlo - 26 enero, 2018

    Muchas gracias por subir las películas en formato 3D OU 1080p gracias son los mejores