Bite (2015) Full 1080p Subtitulada

1.163 vistas
1 estrella2 estrellas3 estrellas4 estrellas5 estrellas (Ninguna valoración todavía)
Cargando…

Información de Bite (2015) Full 1080p Subtitulada

Datos de la película

  • Calidad: Full 1080p
  • Audio: Ingles DTS 5.1 BLURAY
  • Subtitulos: Español Latino PGS - Ingles PGS
  • Resolución: 1920X1080
  • Formato: MKV
  • Codec: H.264
  • Encoder: Dracarys
  • Mediainfo: Clic para Mostrar Datos Ver
  • Format                                   : Matroska
    Format version                           : Version 4 / Version 2
    File size                                : 2.54 GiB
    Duration                                 : 1 h 28 min
    Overall bit rate                         : 4 112 kb/s
    Movie name                               : CinemaniaHDD.com
    Encoded date                             : UTC 2018-03-08 06:32:56 / UTC 2018-03-08T01:35:43Z
    Writing application                      : mkvmerge v15.0.0 ('Duel with the Devil') 64-bit
    Writing library                          : libebml v1.3.5 + libmatroska v1.4.5 / Lavf57.7.2

    Video
    ID                                       : 1
    Format                                   : AVC
    Format/Info                              : Advanced Video Codec
    Format profile                           : High@L4.1
    Format settings                          : CABAC / 4 Ref Frames
    Format settings, CABAC                   : Yes
    Format settings, RefFrames               : 4 frames
    Codec ID                                 : V_MPEG4/ISO/AVC
    Duration                                 : 1 h 28 min
    Bit rate                                 : 2 522 kb/s
    Width                                    : 1 920 pixels
    Height                                   : 1 080 pixels
    Display aspect ratio                     : 16:9
    Frame rate mode                          : Constant
    Frame rate                               : 23.976 (24000/1001) FPS
    Color space                              : YUV
    Chroma subsampling                       : 4:2:0
    Bit depth                                : 8 bits
    Scan type                                : Progressive
    Bits/(Pixel*Frame)                       : 0.051
    Stream size                              : 1.56 GiB (61%)
    Title                                    : Bite (2015) Full 1080p Subtitulada
    Writing library                          : x264 core 148 r2708 86b7198
    Encoding settings                        : cabac=1 / ref=4 / deblock=1:0:0 / analyse=0x3:0x133 / me=esa / subme=10 / psy=1 / psy_rd=1.00:0.00 / mixed_ref=1 / me_range=24 / chroma_me=1 / trellis=2 / 8x8dct=1 / cqm=0 / deadzone=21,11 / fast_pskip=1 / chroma_qp_offset=-2 / threads=34 / lookahead_threads=5 / sliced_threads=0 / nr=0 / decimate=1 / interlaced=0 / bluray_compat=0 / constrained_intra=0 / bframes=8 / b_pyramid=2 / b_adapt=2 / b_bias=0 / direct=3 / weightb=1 / open_gop=0 / weightp=2 / keyint=240 / keyint_min=24 / scenecut=40 / intra_refresh=0 / rc_lookahead=60 / rc=crf / mbtree=1 / crf=20.0 / qcomp=0.60 / qpmin=0 / qpmax=69 / qpstep=4 / vbv_maxrate=62500 / vbv_bufsize=78125 / crf_max=0.0 / nal_hrd=none / filler=0 / ip_ratio=1.40 / aq=1:1.00
    Language                                 : English
    Default                                  : Yes
    Forced                                   : No
    Color range                              : Limited
    Color primaries                          : BT.709
    Transfer characteristics                 : BT.709
    Matrix coefficients                      : BT.709
    Statistics Tags Issue                    : mkvmerge v15.0.0 ('Duel with the Devil') 64-bit 2018-03-08 06:32:56 / mkvmerge v15.0.0 ('Duel with the Devil') 64-bit 2018-03-08 06:32:56 / UTC 2018-03-08T01:35:43Z
    FromStats_BitRate                        : 2569796
    FromStats_Duration                       : 01:28:21.672000000
    FromStats_FrameCount                     : 127113
    FromStats_StreamSize                     : 1703027305

    Audio
    ID                                       : 2
    Format                                   : DTS
    Format/Info                              : Digital Theater Systems
    Mode                                     : 16
    Format settings, Endianness              : Big
    Codec ID                                 : A_DTS
    Duration                                 : 1 h 28 min
    Bit rate mode                            : Constant
    Bit rate                                 : 1 509 kb/s
    Channel(s)                               : 6 channels
    Channel positions                        : Front: L C R, Side: L R, LFE
    Sampling rate                            : 48.0 kHz
    Frame rate                               : 93.750 FPS (512 SPF)
    Bit depth                                : 24 bits
    Compression mode                         : Lossy
    Stream size                              : 954 MiB (37%)
    Language                                 : English
    Default                                  : Yes
    Forced                                   : No
    Statistics Tags Issue                    : mkvmerge v15.0.0 ('Duel with the Devil') 64-bit 2018-03-08 06:32:56 / mkvmerge v15.0.0 ('Duel with the Devil') 64-bit 2018-03-08 06:32:56 / UTC 2018-03-08T01:35:43Z
    FromStats_BitRate                        : 1508999
    FromStats_Duration                       : 01:28:21.707000000
    FromStats_FrameCount                     : 497035
    FromStats_StreamSize                     : 1000034420

    Text #1
    ID                                       : 3
    Format                                   : UTF-8
    Codec ID                                 : S_TEXT/UTF8
    Codec ID/Info                            : UTF-8 Plain Text
    Title                                    : SRT
    Language                                 : Spanish
    Default                                  : Yes
    Forced                                   : Yes
    Statistics Tags Issue                    : mkvmerge v15.0.0 ('Duel with the Devil') 64-bit 2018-03-08 06:32:56 / mkvmerge v15.0.0 ('Duel with the Devil') 64-bit 2018-03-08 06:32:56 / UTC 2018-03-08T01:35:43Z
    FromStats_BitRate                        : 35
    FromStats_Duration                       : 01:24:49.002000000
    FromStats_FrameCount                     : 835
    FromStats_StreamSize                     : 22356

    Text #2
    ID                                       : 4
    Format                                   : PGS
    Muxing mode                              : zlib
    Codec ID                                 : S_HDMV/PGS
    Codec ID/Info                            : Picture based subtitle format used on BDs/HD-DVDs
    Language                                 : Spanish
    Default                                  : No
    Forced                                   : No
    Statistics Tags Issue                    : mkvmerge v15.0.0 ('Duel with the Devil') 64-bit 2018-03-08 06:32:56 / mkvmerge v15.0.0 ('Duel with the Devil') 64-bit 2018-03-08 06:32:56 / UTC 2018-03-08T01:35:43Z
    FromStats_BitRate                        : 32444
    FromStats_Duration                       : 01:24:49.006000000
    FromStats_FrameCount                     : 1670
    FromStats_StreamSize                     : 20638710

    Text #3
    ID                                       : 5
    Format                                   : PGS
    Muxing mode                              : zlib
    Codec ID                                 : S_HDMV/PGS
    Codec ID/Info                            : Picture based subtitle format used on BDs/HD-DVDs
    Language                                 : English
    Default                                  : No
    Forced                                   : No
    Statistics Tags Issue                    : mkvmerge v15.0.0 ('Duel with the Devil') 64-bit 2018-03-08 06:32:56 / mkvmerge v15.0.0 ('Duel with the Devil') 64-bit 2018-03-08 06:32:56 / UTC 2018-03-08T01:35:43Z
    FromStats_BitRate                        : 27907
    FromStats_Duration                       : 01:24:35.362000000
    FromStats_FrameCount                     : 2321
    FromStats_StreamSize                     : 17705277

    Menu
    00:00:00.000                             : :Chapter 1
    00:07:06.593                             : :Chapter 2
    00:14:26.991                             : :Chapter 3
    00:21:14.398                             : :Chapter 4
    00:27:19.138                             : :Chapter 5
    00:34:02.541                             : :Chapter 6
    00:40:35.183                             : :Chapter 7
    00:47:31.849                             : :Chapter 8
    00:54:46.241                             : :Chapter 9
    01:01:47.829                             : :Chapter 10
    01:07:09.817                             : :Chapter 11
    01:15:39.410                             : :Chapter 12
    01:28:18.418                             : :Chapter 13

  • Peso: 2.54 GiB

Sinopsis

Justo antes de su boda, Casey y unos cuantos amigos se escapan a una isla para una divertida aventura. Un hombre de la zona les informa sobre un maravilloso lugar para nadar lejos de los turistas. Mientras las chicas se divierten bañándose, un insecto submarino pica a Casey. Ella empieza a sentirse lenta al volver a casa. Empiezan a aparecer ampollas de pus por su cuerpo y escucha voces. Entre su transformación física y la ansiedad por la boda, Casey sucumbe a su nuevo instinto y empieza a crear un nido que no solo esconde sus huevos, sino que empieza a alimentarse de otras personas.

Ficha técnica

Video trailer de la película

Enlaces de descarga

Rip de Bluray

Descargar Bite (2015) Full 1080p Subtitulada




Aportes de DPeliculasHDmega la pass es:dpeliculashdmega.org Aportes de CinemaniaHD la pass es:cinemaniahdd.com
Guardado en : FULL 1080p Plateadas , Terror

Películas relacionadas

  • Isle of the Dead (2016) WEB-DL 1080p Latino

    2016
    Isle of the Dead (2016) WEB-DL 1080p Latino

    0.0 1 h 27 min 2016

    Extraños atrapados en una isla aislada luchan por sobrevivir contra hordas de muertos.     Latino...

    Director: Nick Lyon

    Género: Terror

    Actores: Todd Cattell

  • Si solo pudiera imaginar (2018) Full 1080p Latino

    2018
    Si solo pudiera imaginar (2018) Full 1080p Latino

    5.0 1 h 50 min 2018

    La historia real de la aclamada canción "I Can Only Imagine", la canción cristiana contemporánea más...

    Director: Jon Erwin

    Género: Drama

    Actores: Trace Adkins

  • El Justiciero (2014) Full 1080p Latino

    2014
    El Justiciero (2014) Full 1080p Latino

    4.0 2 h 12 min 2014

    Robert McCall, un antiguo agente de la CIA que lleva ahora una vida tranquila, abandona su retiro para...

    Director: Deirdre Horgan

    Género: Acción

    Actores: Yan Dron

Comentarios 0