Birth of the Dragon (2017) 1080p Subtitulada

2.906 vistas
1 estrella2 estrellas3 estrellas4 estrellas5 estrellas (1 votos, promedio: 5,00 de 5)
Cargando…

Información de Birth of the Dragon (2017) 1080p Subtitulada

Datos de la película

  • Calidad: 1080p
  • Audio: Ingles AC3 5.1 BLURAY
  • Subtitulos: Español Latino SRT
  • Resolución: 1920X800
  • Formato: MKV
  • Codec: H.264
  • Encoder: Dpelis
  • Mediainfo: Clic para Mostrar Datos Ver
  • Format                                   : Matroska
    Format version                           : Version 4 / Version 2
    File size                                : 2.53 GiB
    Duration                                 : 1 h 35 min
    Overall bit rate                         : 3 783 kb/s
    Movie name                               : dpeliculashdmega.org
    Encoded date                             : UTC 2017-11-11 06:52:22 / UTC 2017-11-11T02:56:31Z
    Writing application                      : mkvmerge v15.0.0 ('Duel with the Devil') 64-bit
    Writing library                          : libebml v1.3.5 + libmatroska v1.4.5 / Lavf57.7.2

    Video
    ID                                       : 1
    Format                                   : AVC
    Format/Info                              : Advanced Video Codec
    Format profile                           : High@L4.1
    Format settings                          : CABAC / 5 Ref Frames
    Format settings, CABAC                   : Yes
    Format settings, RefFrames               : 5 frames
    Codec ID                                 : V_MPEG4/ISO/AVC
    Duration                                 : 1 h 35 min
    Bit rate                                 : 3 323 kb/s
    Nominal bit rate                         : 3 500 kb/s
    Width                                    : 1 920 pixels
    Height                                   : 800 pixels
    Display aspect ratio                     : 2.40:1
    Frame rate mode                          : Constant
    Frame rate                               : 23.976 (24000/1001) FPS
    Color space                              : YUV
    Chroma subsampling                       : 4:2:0
    Bit depth                                : 8 bits
    Scan type                                : Progressive
    Bits/(Pixel*Frame)                       : 0.090
    Stream size                              : 2.22 GiB (88%)
    Title                                    : Birth of the Dragon (2017) 1080p Subtitulada
    Writing library                          : x264 core 148 r2708 86b7198
    Encoding settings                        : cabac=1 / ref=5 / deblock=1:0:0 / analyse=0x3:0x113 / me=umh / subme=8 / psy=1 / psy_rd=1.00:0.00 / mixed_ref=1 / me_range=16 / chroma_me=1 / trellis=1 / 8x8dct=1 / cqm=0 / deadzone=21,11 / fast_pskip=1 / chroma_qp_offset=-2 / threads=25 / lookahead_threads=4 / sliced_threads=0 / nr=0 / decimate=1 / interlaced=0 / bluray_compat=0 / constrained_intra=0 / bframes=3 / b_pyramid=2 / b_adapt=2 / b_bias=0 / direct=3 / weightb=1 / open_gop=0 / weightp=2 / keyint=240 / keyint_min=24 / scenecut=40 / intra_refresh=0 / rc_lookahead=50 / rc=abr / mbtree=1 / bitrate=3500 / ratetol=1.0 / qcomp=0.60 / qpmin=0 / qpmax=69 / qpstep=4 / vbv_maxrate=62500 / vbv_bufsize=78125 / nal_hrd=none / filler=0 / ip_ratio=1.40 / aq=1:1.00
    Language                                 : English
    Default                                  : Yes
    Forced                                   : No
    Color range                              : Limited
    Color primaries                          : BT.709
    Transfer characteristics                 : BT.709
    Matrix coefficients                      : BT.709
    Statistics Tags Issue                    : mkvmerge v15.0.0 ('Duel with the Devil') 64-bit 2017-11-11 06:52:22 / mkvmerge v15.0.0 ('Duel with the Devil') 64-bit 2017-11-11 06:52:22 / UTC 2017-11-11T02:56:31Z
    FromStats_BitRate                        : 3396793
    FromStats_Duration                       : 01:35:34.980000000
    FromStats_FrameCount                     : 137502
    FromStats_StreamSize                     : 2435067628

    Audio
    ID                                       : 2
    Format                                   : AC-3
    Format/Info                              : Audio Coding 3
    Format settings, Endianness              : Big
    Codec ID                                 : A_AC3
    Duration                                 : 1 h 35 min
    Bit rate mode                            : Constant
    Bit rate                                 : 384 kb/s
    Channel(s)                               : 6 channels
    Channel positions                        : Front: L C R, Side: L R, LFE
    Sampling rate                            : 48.0 kHz
    Frame rate                               : 31.250 FPS (1536 SPF)
    Bit depth                                : 16 bits
    Compression mode                         : Lossy
    Delay relative to video                  : -5 ms
    Stream size                              : 263 MiB (10%)
    Title                                    : Ingles-AC3
    Language                                 : English
    Service kind                             : Complete Main
    Default                                  : Yes
    Forced                                   : No
    Statistics Tags Issue                    : mkvmerge v15.0.0 ('Duel with the Devil') 64-bit 2017-11-11 06:52:22 / mkvmerge v15.0.0 ('Duel with the Devil') 64-bit 2017-11-11 06:52:22 / UTC 2017-11-11T02:56:31Z
    FromStats_BitRate                        : 384000
    FromStats_Duration                       : 01:35:34.976000000
    FromStats_FrameCount                     : 179218
    FromStats_StreamSize                     : 275278848

    Text
    ID                                       : 3
    Format                                   : UTF-8
    Codec ID                                 : S_TEXT/UTF8
    Codec ID/Info                            : UTF-8 Plain Text
    Language                                 : Spanish
    Default                                  : Yes
    Forced                                   : No
    Statistics Tags Issue                    : mkvmerge v15.0.0 ('Duel with the Devil') 64-bit 2017-11-11 06:52:22 / mkvmerge v15.0.0 ('Duel with the Devil') 64-bit 2017-11-11 06:52:22 / UTC 2017-11-11T02:56:31Z
    FromStats_BitRate                        : 49
    FromStats_Duration                       : 01:27:00.261000000
    FromStats_FrameCount                     : 1045
    FromStats_StreamSize                     : 32154

  • Peso: 2.53 GiB

Sinopsis

Bruce Lee (Philip Ng), un joven y prometedor experto en artes marciales, desafía al legendario maestro de kung-fu Wong Jack Man (Yu Xia) a una lucha sin reglas al norte de California. Biopic sobre el mítico actor, escritor y experto en artes marciales de origen chino basado en el legendario combate privado que mantuvo en San Francisco en 1964, a sus 24 años. El duelo tuvo lugar debido a que gran parte de la comunidad china estaba en desacuerdo con que Lee enseñara kung-fu a aprendices que no fueran de origen chino.

Ficha técnica

  • Titulo original: Birth of the Dragon
  • Fecha de lanzamiento: 25-08-2017 (Canada, China, United States of America)
  • Director: George Nolfi
  • Género: Acción, Drama
  • Puntuación: 5.0 1 votos
  • Duración:
    1 h 35 min

Video trailer de la película

Enlaces de descarga

Rip de Bluray

Descargar Birth of the Dragon (2017) 1080p Subtitulada




Aportes de DPeliculasHDmega la pass es:dpeliculashdmega.org Aportes de CinemaniaHD la pass es:cinemaniahdd.com
Guardado en : Acción , Drama

Películas relacionadas

  • Occupation (2018) WEBDL 1080p Subtitulada

    2018
    Occupation (2018) WEBDL 1080p Subtitulada

    0.0 1h 59m 2018

    El film se centra en un grupo de civiles que ven como su pequeño pueblo en Australia es aniquilado por...

    Director: Luke Sparke

    Género: Acción

    Actores: Temuera Morrison

  • Tully (2018) 1080p Latino

    2018
    Tully (2018) 1080p Latino

    0.0 1 h 35 min 2018

    La historia de una mujer con tres hijos que, incapaz de lidiar con su bebé recién nacido, contrata...

    Director: Jason Reitman

    Género: Comedia

    Actores: Stormy Ent

  • Si solo pudiera imaginar (2018) Full 1080p Latino

    2018
    Si solo pudiera imaginar (2018) Full 1080p Latino

    5.0 1 h 50 min 2018

    La historia real de la aclamada canción "I Can Only Imagine", la canción cristiana contemporánea más...

    Director: Jon Erwin

    Género: Drama

    Actores: Trace Adkins

  • El Justiciero (2014) Full 1080p Latino

    2014
    El Justiciero (2014) Full 1080p Latino

    4.0 2 h 12 min 2014

    Robert McCall, un antiguo agente de la CIA que lleva ahora una vida tranquila, abandona su retiro para...

    Director: Deirdre Horgan

    Género: Acción

    Actores: Yan Dron

Comentarios 5
  • maria - 21 noviembre, 2017

    podras subir nada mas el subtitulo

  • Slash - 12 noviembre, 2017

    Gracias.

  • Zeimar - 11 noviembre, 2017

    Saldra en latino pronto? gracias!

    • Dpelis2 pelis2 - 11 noviembre, 2017

      Creo que esta pelicula no saldra en latino…