Big Little Lies (2017) Primera Temporada Full 1080p Latino

1.598 vistas
1 estrella2 estrellas3 estrellas4 estrellas5 estrellas (2 votos, promedio: 3,00 de 5)
Cargando…

Información de Big Little Lies (2017) Primera Temporada Full 1080p Latino

Datos de la película

  • Calidad: Full 1080p
  • Audio: Español Latino DTS 2.0 BLURAY - Ingles DTS 5.1 BLURAY
  • Subtitulos: Español Latino PGS - Ingles PGS
  • Resolución: 1920X1080p
  • Formato: MKV
  • Codec: H.264
  • Encoder: Dracarys
  • Mediainfo: Clic para Mostrar Datos Ver
  • Format                                   : Matroska
    Format version                           : Version 4 / Version 2
    File size                                : 3.99 GiB
    Duration                                 : 52 min 20 s
    Overall bit rate                         : 10.9 Mb/s
    Movie name                               : CinemaniaHDD.com
    Encoded date                             : UTC 2018-01-24 03:30:30 / UTC 2018-01-23T02:41:12Z
    Writing application                      : mkvmerge v15.0.0 ('Duel with the Devil') 64-bit
    Writing library                          : libebml v1.3.5 + libmatroska v1.4.5 / Lavf57.7.2

    Video
    ID                                       : 1
    Format                                   : AVC
    Format/Info                              : Advanced Video Codec
    Format profile                           : High@L4.1
    Format settings                          : CABAC / 4 Ref Frames
    Format settings, CABAC                   : Yes
    Format settings, RefFrames               : 4 frames
    Codec ID                                 : V_MPEG4/ISO/AVC
    Duration                                 : 52 min 20 s
    Bit rate                                 : 8 432 kb/s
    Width                                    : 1 920 pixels
    Height                                   : 1 080 pixels
    Display aspect ratio                     : 16:9
    Frame rate mode                          : Constant
    Frame rate                               : 23.976 (24000/1001) FPS
    Color space                              : YUV
    Chroma subsampling                       : 4:2:0
    Bit depth                                : 8 bits
    Scan type                                : Progressive
    Bits/(Pixel*Frame)                       : 0.170
    Stream size                              : 3.08 GiB (77%)
    Writing library                          : x264 core 148 r2708 86b7198
    Encoding settings                        : cabac=1 / ref=4 / deblock=1:0:0 / analyse=0x3:0x133 / me=esa / subme=10 / psy=1 / psy_rd=1.00:0.00 / mixed_ref=1 / me_range=24 / chroma_me=1 / trellis=2 / 8x8dct=1 / cqm=0 / deadzone=21,11 / fast_pskip=1 / chroma_qp_offset=-2 / threads=34 / lookahead_threads=5 / sliced_threads=0 / nr=0 / decimate=1 / interlaced=0 / bluray_compat=0 / constrained_intra=0 / bframes=8 / b_pyramid=2 / b_adapt=2 / b_bias=0 / direct=3 / weightb=1 / open_gop=0 / weightp=2 / keyint=240 / keyint_min=24 / scenecut=40 / intra_refresh=0 / rc_lookahead=60 / rc=crf / mbtree=1 / crf=20.0 / qcomp=0.60 / qpmin=0 / qpmax=69 / qpstep=4 / vbv_maxrate=62500 / vbv_bufsize=78125 / crf_max=0.0 / nal_hrd=none / filler=0 / ip_ratio=1.40 / aq=1:1.00
    Language                                 : English
    Default                                  : Yes
    Forced                                   : No
    Color range                              : Limited
    Color primaries                          : BT.709
    Transfer characteristics                 : BT.709
    Matrix coefficients                      : BT.709
    Statistics Tags Issue                    : mkvmerge v15.0.0 ('Duel with the Devil') 64-bit 2018-01-24 03:30:30 / mkvmerge v15.0.0 ('Duel with the Devil') 64-bit 2018-01-24 03:30:30 / UTC 2018-01-23T02:41:12Z
    FromStats_BitRate                        : 8619384
    FromStats_Duration                       : 00:52:20.638000000
    FromStats_FrameCount                     : 75300
    FromStats_StreamSize                     : 3383795710

    Audio #1
    ID                                       : 2
    Format                                   : DTS
    Format/Info                              : Digital Theater Systems
    Mode                                     : 16
    Format settings, Endianness              : Big
    Codec ID                                 : A_DTS
    Duration                                 : 52 min 20 s
    Bit rate mode                            : Constant
    Bit rate                                 : 768 kb/s
    Channel(s)                               : 2 channels
    Channel positions                        : Front: L R
    Sampling rate                            : 48.0 kHz
    Frame rate                               : 93.750 FPS (512 SPF)
    Bit depth                                : 24 bits
    Compression mode                         : Lossy
    Stream size                              : 288 MiB (7%)
    Language                                 : Spanish
    Default                                  : Yes
    Forced                                   : No
    Statistics Tags Issue                    : mkvmerge v15.0.0 ('Duel with the Devil') 64-bit 2018-01-24 03:30:30 / mkvmerge v15.0.0 ('Duel with the Devil') 64-bit 2018-01-24 03:30:30 / UTC 2018-01-23T02:41:12Z
    FromStats_BitRate                        : 767999
    FromStats_Duration                       : 00:52:20.630000000
    FromStats_FrameCount                     : 294434
    FromStats_StreamSize                     : 301500416

    Audio #2
    ID                                       : 3
    Format                                   : DTS
    Format/Info                              : Digital Theater Systems
    Mode                                     : 16
    Format settings, Endianness              : Big
    Codec ID                                 : A_DTS
    Duration                                 : 52 min 20 s
    Bit rate mode                            : Constant
    Bit rate                                 : 1 509 kb/s
    Channel(s)                               : 6 channels
    Channel positions                        : Front: L C R, Side: L R, LFE
    Sampling rate                            : 48.0 kHz
    Frame rate                               : 93.750 FPS (512 SPF)
    Bit depth                                : 24 bits
    Compression mode                         : Lossy
    Stream size                              : 565 MiB (14%)
    Language                                 : English
    Default                                  : No
    Forced                                   : No
    Statistics Tags Issue                    : mkvmerge v15.0.0 ('Duel with the Devil') 64-bit 2018-01-24 03:30:30 / mkvmerge v15.0.0 ('Duel with the Devil') 64-bit 2018-01-24 03:30:30 / UTC 2018-01-23T02:41:12Z
    FromStats_BitRate                        : 1508999
    FromStats_Duration                       : 00:52:20.630000000
    FromStats_FrameCount                     : 294434
    FromStats_StreamSize                     : 592401208

    Text #1
    ID                                       : 4
    Format                                   : PGS
    Muxing mode                              : zlib
    Codec ID                                 : S_HDMV/PGS
    Codec ID/Info                            : Picture based subtitle format used on BDs/HD-DVDs
    Language                                 : English
    Default                                  : No
    Forced                                   : No
    Statistics Tags Issue                    : mkvmerge v15.0.0 ('Duel with the Devil') 64-bit 2018-01-24 03:30:30 / mkvmerge v15.0.0 ('Duel with the Devil') 64-bit 2018-01-24 03:30:30 / UTC 2018-01-23T02:41:12Z
    FromStats_BitRate                        : 50807
    FromStats_Duration                       : 00:49:54.658000000
    FromStats_FrameCount                     : 1589
    FromStats_StreamSize                     : 19018934

    Text #2
    ID                                       : 5
    Format                                   : PGS
    Muxing mode                              : zlib
    Codec ID                                 : S_HDMV/PGS
    Codec ID/Info                            : Picture based subtitle format used on BDs/HD-DVDs
    Language                                 : Spanish
    Default                                  : No
    Forced                                   : No
    Statistics Tags Issue                    : mkvmerge v15.0.0 ('Duel with the Devil') 64-bit 2018-01-24 03:30:30 / mkvmerge v15.0.0 ('Duel with the Devil') 64-bit 2018-01-24 03:30:30 / UTC 2018-01-23T02:41:12Z
    FromStats_BitRate                        : 46785
    FromStats_Duration                       : 00:47:46.364000000
    FromStats_FrameCount                     : 1462
    FromStats_StreamSize                     : 16762982

    Menu
    00:00:00.000                             : :Chapter 1
    00:01:37.598                             : :Chapter 2
    00:09:33.114                             : :Chapter 3
    00:17:58.619                             : :Chapter 4
    00:28:13.400                             : :Chapter 5
    00:34:53.633                             : :Chapter 6
    00:41:33.825                             : :Chapter 7
    00:49:16.704                             : :Chapter 8

  • Peso: De 3 a 6GB X Capítulos 7 Total

Sinopsis

Miniserie de TV (7 episodios). Una oscura y misteriosa historia sobre tres madres (Madeline, Celeste y Jane) del norte de California cuyas vidas, aparentemente perfectas, se ven sorprendidas por un asesinato durante un evento para recaudar fondos del colegio de primaria. Celeste (Nicole Kidman) es una mujer con una vida familiar perfecta y un esposo ejemplar. Sin embargo, luchará por conseguir algo que le quita el sueño todas las noches. Madeline (Reese Witherspoon) es una madre atrevida, divertida, pero tendrá que soportar que su exmarido y su actual mujer vivan en la misma ciudad que ella. Por su parte, Jane (Shailene Woodley), una madre soltera y su llegada a la nueva ciudad no será todo lo placentera que pudiera imaginar.

Ficha técnica

Video trailer de la película

Enlaces de descarga

Rip de Bluray

Descargar Big Little Lies (2017) Primera Temporada Full 1080p Latino




Aportes de DPeliculasHDmega la pass es:dpeliculashdmega.org Aportes de CinemaniaHD la pass es:cinemaniahdd.com
Guardado en : Drama , FULL 1080p Plateadas , Series

Películas relacionadas

  • Tully (2018) 1080p Latino

    2018
    Tully (2018) 1080p Latino

    0.0 1 h 35 min 2018

    La historia de una mujer con tres hijos que, incapaz de lidiar con su bebé recién nacido, contrata...

    Director: Jason Reitman

    Género: Comedia

    Actores: Stormy Ent

  • Si solo pudiera imaginar (2018) Full 1080p Latino

    2018
    Si solo pudiera imaginar (2018) Full 1080p Latino

    5.0 1 h 50 min 2018

    La historia real de la aclamada canción "I Can Only Imagine", la canción cristiana contemporánea más...

    Director: Jon Erwin

    Género: Drama

    Actores: Trace Adkins

  • El Justiciero (2014) Full 1080p Latino

    2014
    El Justiciero (2014) Full 1080p Latino

    4.0 2 h 12 min 2014

    Robert McCall, un antiguo agente de la CIA que lleva ahora una vida tranquila, abandona su retiro para...

    Director: Deirdre Horgan

    Género: Acción

    Actores: Yan Dron

Comentarios 1
  • slash - 28 enero, 2018

    Gracias, es buena la serie, se las recomiendo.