Berlin Syndrome (2017) 1080p Latino

965 vistas
1 estrella2 estrellas3 estrellas4 estrellas5 estrellas (Ninguna valoración todavía)
Cargando…

Información de Berlin Syndrome (2017) 1080p Latino

Datos de la película

  • Calidad: 1080p
  • Audio: Español Latino AC3 5.1 iTUNES - Ingles AC3 5.1 BLURAY
  • Subtitulos: Español Latino SRT- FORZADOS SRT
  • Resolución: 1920X804p
  • Formato: MKV
  • Codec: H.264
  • Encoder: CinemaniaHD
  • Mediainfo: Clic para Mostrar Datos Ver
  • Format                                   : Matroska
    Format version                           : Version 4 / Version 2
    File size                                : 3.26 GiB
    Duration                                 : 1 h 51 min
    Overall bit rate                         : 4 182 kb/s
    Movie name                               : CinemaniaHDD.com
    Encoded date                             : UTC 2018-01-05 23:20:45 / UTC 2018-01-05T14:06:59Z
    Writing application                      : mkvmerge v15.0.0 ('Duel with the Devil') 64-bit
    Writing library                          : libebml v1.3.5 + libmatroska v1.4.5 / Lavf57.7.2

    Video
    ID                                       : 1
    Format                                   : AVC
    Format/Info                              : Advanced Video Codec
    Format profile                           : High@L4.1
    Format settings                          : CABAC / 4 Ref Frames
    Format settings, CABAC                   : Yes
    Format settings, RefFrames               : 4 frames
    Codec ID                                 : V_MPEG4/ISO/AVC
    Duration                                 : 1 h 51 min
    Bit rate                                 : 3 330 kb/s
    Nominal bit rate                         : 3 500 kb/s
    Width                                    : 1 920 pixels
    Height                                   : 804 pixels
    Display aspect ratio                     : 2.40:1
    Frame rate mode                          : Constant
    Frame rate                               : 25.000 FPS
    Color space                              : YUV
    Chroma subsampling                       : 4:2:0
    Bit depth                                : 8 bits
    Scan type                                : Progressive
    Bits/(Pixel*Frame)                       : 0.086
    Stream size                              : 2.60 GiB (80%)
    Title                                    : Berlin Syndrome (2017) 1080p Latino
    Writing library                          : x264 core 148 r2708 86b7198
    Encoding settings                        : cabac=1 / ref=3 / deblock=1:0:0 / analyse=0x3:0x113 / me=hex / subme=7 / psy=1 / psy_rd=1.00:0.00 / mixed_ref=1 / me_range=16 / chroma_me=1 / trellis=1 / 8x8dct=1 / cqm=0 / deadzone=21,11 / fast_pskip=1 / chroma_qp_offset=-2 / threads=25 / lookahead_threads=4 / sliced_threads=0 / nr=0 / decimate=1 / interlaced=0 / bluray_compat=0 / constrained_intra=0 / bframes=3 / b_pyramid=2 / b_adapt=1 / b_bias=0 / direct=1 / weightb=1 / open_gop=0 / weightp=2 / keyint=250 / keyint_min=25 / scenecut=40 / intra_refresh=0 / rc_lookahead=40 / rc=abr / mbtree=1 / bitrate=3500 / ratetol=1.0 / qcomp=0.60 / qpmin=0 / qpmax=69 / qpstep=4 / vbv_maxrate=62500 / vbv_bufsize=78125 / nal_hrd=none / filler=0 / ip_ratio=1.40 / aq=1:1.00
    Language                                 : English
    Default                                  : Yes
    Forced                                   : No
    Color range                              : Limited
    Color primaries                          : BT.709
    Transfer characteristics                 : BT.709
    Matrix coefficients                      : BT.709
    Statistics Tags Issue                    : mkvmerge v15.0.0 ('Duel with the Devil') 64-bit 2018-01-05 23:20:45 / mkvmerge v15.0.0 ('Duel with the Devil') 64-bit 2018-01-05 23:20:45 / UTC 2018-01-05T14:06:59Z
    FromStats_BitRate                        : 3411857
    FromStats_Duration                       : 01:51:36.320000000
    FromStats_FrameCount                     : 167408
    FromStats_StreamSize                     : 2855861554

    Audio #1
    ID                                       : 2
    Format                                   : AC-3
    Format/Info                              : Audio Coding 3
    Format settings, Endianness              : Big
    Codec ID                                 : A_AC3
    Duration                                 : 1 h 51 min
    Bit rate mode                            : Constant
    Bit rate                                 : 384 kb/s
    Channel(s)                               : 6 channels
    Channel positions                        : Front: L C R, Side: L R, LFE
    Sampling rate                            : 48.0 kHz
    Frame rate                               : 31.250 FPS (1536 SPF)
    Bit depth                                : 16 bits
    Compression mode                         : Lossy
    Delay relative to video                  : -5 ms
    Stream size                              : 307 MiB (9%)
    Language                                 : Spanish
    Service kind                             : Complete Main
    Default                                  : Yes
    Forced                                   : No
    Statistics Tags Issue                    : mkvmerge v15.0.0 ('Duel with the Devil') 64-bit 2018-01-05 23:20:45 / mkvmerge v15.0.0 ('Duel with the Devil') 64-bit 2018-01-05 23:20:45 / UTC 2018-01-05T14:06:59Z
    FromStats_BitRate                        : 384000
    FromStats_Duration                       : 01:51:28.608000000
    FromStats_FrameCount                     : 209019
    FromStats_StreamSize                     : 321053184

    Audio #2
    ID                                       : 3
    Format                                   : AC-3
    Format/Info                              : Audio Coding 3
    Format settings, Endianness              : Big
    Codec ID                                 : A_AC3
    Duration                                 : 1 h 51 min
    Bit rate mode                            : Constant
    Bit rate                                 : 384 kb/s
    Channel(s)                               : 6 channels
    Channel positions                        : Front: L C R, Side: L R, LFE
    Sampling rate                            : 48.0 kHz
    Frame rate                               : 31.250 FPS (1536 SPF)
    Bit depth                                : 16 bits
    Compression mode                         : Lossy
    Delay relative to video                  : -5 ms
    Stream size                              : 307 MiB (9%)
    Language                                 : English
    Service kind                             : Complete Main
    Default                                  : No
    Forced                                   : No
    Statistics Tags Issue                    : mkvmerge v15.0.0 ('Duel with the Devil') 64-bit 2018-01-05 23:20:45 / mkvmerge v15.0.0 ('Duel with the Devil') 64-bit 2018-01-05 23:20:45 / UTC 2018-01-05T14:06:59Z
    FromStats_BitRate                        : 384000
    FromStats_Duration                       : 01:51:35.776000000
    FromStats_FrameCount                     : 209243
    FromStats_StreamSize                     : 321397248

    Text #1
    ID                                       : 4
    Format                                   : UTF-8
    Codec ID                                 : S_TEXT/UTF8
    Codec ID/Info                            : UTF-8 Plain Text
    Title                                    : Forzados
    Language                                 : Spanish
    Default                                  : Yes
    Forced                                   : Yes
    Statistics Tags Issue                    : mkvmerge v15.0.0 ('Duel with the Devil') 64-bit 2018-01-05 23:20:45 / mkvmerge v15.0.0 ('Duel with the Devil') 64-bit 2018-01-05 23:20:45 / UTC 2018-01-05T14:06:59Z
    FromStats_BitRate                        : 6
    FromStats_Duration                       : 01:14:35.184000000
    FromStats_FrameCount                     : 127
    FromStats_StreamSize                     : 3703

    Text #2
    ID                                       : 5
    Format                                   : UTF-8
    Codec ID                                 : S_TEXT/UTF8
    Codec ID/Info                            : UTF-8 Plain Text
    Language                                 : Spanish
    Default                                  : No
    Forced                                   : No
    Statistics Tags Issue                    : mkvmerge v15.0.0 ('Duel with the Devil') 64-bit 2018-01-05 23:20:45 / mkvmerge v15.0.0 ('Duel with the Devil') 64-bit 2018-01-05 23:20:45 / UTC 2018-01-05T14:06:59Z
    FromStats_BitRate                        : 19
    FromStats_Duration                       : 01:44:19.718000000
    FromStats_FrameCount                     : 590
    FromStats_StreamSize                     : 15643

    Menu
    00:00:00.000                             : :Chapter 1
    00:06:05.080                             : :Chapter 2
    00:14:47.840                             : :Chapter 3
    00:24:45.200                             : :Chapter 4
    00:36:56.080                             : :Chapter 5
    00:45:32.720                             : :Chapter 6
    00:51:47.160                             : :Chapter 7
    01:00:08.320                             : :Chapter 8
    01:09:28.720                             : :Chapter 9
    01:20:33.520                             : :Chapter 10
    01:27:53.200                             : :Chapter 11
    01:37:26.640                             : :Chapter 12
    01:46:31.520                             : :Chapter 13

     

  • Peso: 3.26 GiB

Sinopsis

Un apasionado romance de vacaciones se transforma en una relación obsesiva en la que una periodista australiana se despierta una mañana en un apartamento de Berlín y no puede marcharse.

Ficha técnica

Video trailer de la película

Enlaces de descarga

Rip de Bluray

Descargar Berlin Syndrome (2017) 1080p Latino




Aportes de DPeliculasHDmega la pass es:dpeliculashdmega.org Aportes de CinemaniaHD la pass es:cinemaniahdd.com
Guardado en : Drama , Misterio , Suspense , Terror

Películas relacionadas

  • Isle of the Dead (2016) WEB-DL 1080p Latino

    2016
    Isle of the Dead (2016) WEB-DL 1080p Latino

    0.0 1 h 27 min 2016

    Extraños atrapados en una isla aislada luchan por sobrevivir contra hordas de muertos.     Latino...

    Director: Nick Lyon

    Género: Terror

    Actores: Todd Cattell

  • Tully (2018) 1080p Latino

    2018
    Tully (2018) 1080p Latino

    0.0 1 h 35 min 2018

    La historia de una mujer con tres hijos que, incapaz de lidiar con su bebé recién nacido, contrata...

    Director: Jason Reitman

    Género: Comedia

    Actores: Stormy Ent

  • Si solo pudiera imaginar (2018) Full 1080p Latino

    2018
    Si solo pudiera imaginar (2018) Full 1080p Latino

    5.0 1 h 50 min 2018

    La historia real de la aclamada canción "I Can Only Imagine", la canción cristiana contemporánea más...

    Director: Jon Erwin

    Género: Drama

    Actores: Trace Adkins

  • El Justiciero (2014) Full 1080p Latino

    2014
    El Justiciero (2014) Full 1080p Latino

    4.0 2 h 12 min 2014

    Robert McCall, un antiguo agente de la CIA que lleva ahora una vida tranquila, abandona su retiro para...

    Director: Deirdre Horgan

    Género: Acción

    Actores: Yan Dron

Comentarios 4
  • Ivanla12 - 05 enero, 2018

    Hola bro!
    yo sincronice el audio y los subtitulos para la version bluray de 25fps, si los quieres avísame.. Saludos!

  • snj - 05 enero, 2018

    Hola
    la subiran en ripeo de bluray? vi que ya salio el bluray

    • Dpelis2 - 05 enero, 2018

      Ya sabemos solo que el audio no calza con la version bluray!