Belleza americana (1999) Full 1080p Latino

1.048 vistas
1 estrella2 estrellas3 estrellas4 estrellas5 estrellas (7 votos, promedio: 5,00 de 5)
Cargando…

Información de Belleza americana (1999) Full 1080p Latino

Datos de la película

  • Calidad: Full 1080p
  • Audio: Español Latino AC3 5.1 BLURAY - Ingles DTS 5.1 BLURAY
  • Subtitulos: Español Latino PGS - Ingles PGS
  • Resolución: 1920x1080p
  • Formato: MKV
  • Codec: H.264
  • Encoder: Dracarys
  • Mediainfo: Clic para Mostrar Datos Ver
  • Format                                   : Matroska
    Format version                           : Version 4 / Version 2
    File size                                : 10.2 GiB
    Duration                                 : 2 h 1 min
    Overall bit rate                         : 12.0 Mb/s
    Movie name                               : CinemaniaHDD.net
    Encoded date                             : UTC 2018-10-07 18:38:39 / UTC 2018-09-25T10:44:06Z
    Writing application                      : mkvmerge v15.0.0 ('Duel with the Devil') 64-bit
    Writing library                          : libebml v1.3.5 + libmatroska v1.4.5 / Lavf57.7.2

    Video
    ID                                       : 1
    Format                                   : AVC
    Format/Info                              : Advanced Video Codec
    Format profile                           : High@L4.1
    Format settings                          : CABAC / 4 Ref Frames
    Format settings, CABAC                   : Yes
    Format settings, RefFrames               : 4 frames
    Codec ID                                 : V_MPEG4/ISO/AVC
    Duration                                 : 2 h 1 min
    Bit rate                                 : 9 606 kb/s
    Width                                    : 1 920 pixels
    Height                                   : 1 080 pixels
    Display aspect ratio                     : 16:9
    Frame rate mode                          : Constant
    Frame rate                               : 23.976 (24000/1001) FPS
    Color space                              : YUV
    Chroma subsampling                       : 4:2:0
    Bit depth                                : 8 bits
    Scan type                                : Progressive
    Bits/(Pixel*Frame)                       : 0.193
    Stream size                              : 8.16 GiB (80%)
    Writing library                          : x264 core 148 r2708 86b7198
    Encoding settings                        : cabac=1 / ref=4 / deblock=1:0:0 / analyse=0x3:0x133 / me=esa / subme=10 / psy=1 / psy_rd=1.00:0.00 / mixed_ref=1 / me_range=24 / chroma_me=1 / trellis=2 / 8x8dct=1 / cqm=0 / deadzone=21,11 / fast_pskip=1 / chroma_qp_offset=-2 / threads=34 / lookahead_threads=5 / sliced_threads=0 / nr=0 / decimate=1 / interlaced=0 / bluray_compat=0 / constrained_intra=0 / bframes=8 / b_pyramid=2 / b_adapt=2 / b_bias=0 / direct=3 / weightb=1 / open_gop=0 / weightp=2 / keyint=240 / keyint_min=24 / scenecut=40 / intra_refresh=0 / rc_lookahead=60 / rc=crf / mbtree=1 / crf=20.0 / qcomp=0.60 / qpmin=0 / qpmax=69 / qpstep=4 / vbv_maxrate=62500 / vbv_bufsize=78125 / crf_max=0.0 / nal_hrd=none / filler=0 / ip_ratio=1.40 / aq=1:1.00
    Language                                 : English
    Default                                  : Yes
    Forced                                   : No
    Color range                              : Limited
    Color primaries                          : BT.709
    Transfer characteristics                 : BT.709
    Matrix coefficients                      : BT.709
    Statistics Tags Issue                    : mkvmerge v15.0.0 ('Duel with the Devil') 64-bit 2018-10-07 18:38:39 / mkvmerge v15.0.0 ('Duel with the Devil') 64-bit 2018-10-07 18:38:39 / UTC 2018-09-25T10:44:06Z
    FromStats_BitRate                        : 9820944
    FromStats_Duration                       : 02:01:39.960000000
    FromStats_FrameCount                     : 175024
    FromStats_StreamSize                     : 8961562395

    Audio #1
    ID                                       : 2
    Format                                   : AC-3
    Format/Info                              : Audio Coding 3
    Format settings, Endianness              : Big
    Codec ID                                 : A_AC3
    Duration                                 : 2 h 1 min
    Bit rate mode                            : Constant
    Bit rate                                 : 640 kb/s
    Channel(s)                               : 6 channels
    Channel positions                        : Front: L C R, Side: L R, LFE
    Sampling rate                            : 48.0 kHz
    Frame rate                               : 31.250 FPS (1536 SPF)
    Bit depth                                : 16 bits
    Compression mode                         : Lossy
    Stream size                              : 557 MiB (5%)
    Language                                 : Spanish
    Service kind                             : Complete Main
    Default                                  : Yes
    Forced                                   : No
    Statistics Tags Issue                    : mkvmerge v15.0.0 ('Duel with the Devil') 64-bit 2018-10-07 18:38:39 / mkvmerge v15.0.0 ('Duel with the Devil') 64-bit 2018-10-07 18:38:39 / UTC 2018-09-25T10:44:06Z
    FromStats_BitRate                        : 640000
    FromStats_Duration                       : 02:01:39.968000000
    FromStats_FrameCount                     : 228124
    FromStats_StreamSize                     : 583997440

    Audio #2
    ID                                       : 3
    Format                                   : DTS
    Format/Info                              : Digital Theater Systems
    Mode                                     : 16
    Format settings, Endianness              : Big
    Codec ID                                 : A_DTS
    Duration                                 : 2 h 1 min
    Bit rate mode                            : Constant
    Bit rate                                 : 1 509 kb/s
    Channel(s)                               : 6 channels
    Channel positions                        : Front: L C R, Side: L R, LFE
    Sampling rate                            : 48.0 kHz
    Frame rate                               : 93.750 FPS (512 SPF)
    Bit depth                                : 24 bits
    Compression mode                         : Lossy
    Stream size                              : 1.28 GiB (13%)
    Language                                 : English
    Default                                  : No
    Forced                                   : No
    Statistics Tags Issue                    : mkvmerge v15.0.0 ('Duel with the Devil') 64-bit 2018-10-07 18:38:39 / mkvmerge v15.0.0 ('Duel with the Devil') 64-bit 2018-10-07 18:38:39 / UTC 2018-09-25T10:44:06Z
    FromStats_BitRate                        : 1508999
    FromStats_Duration                       : 02:01:39.958000000
    FromStats_FrameCount                     : 684371
    FromStats_StreamSize                     : 1376954452

    Text #1
    ID                                       : 4
    Format                                   : PGS
    Muxing mode                              : zlib
    Codec ID                                 : S_HDMV/PGS
    Codec ID/Info                            : Picture based subtitle format used on BDs/HD-DVDs
    Language                                 : English
    Default                                  : No
    Forced                                   : No
    Statistics Tags Issue                    : mkvmerge v15.0.0 ('Duel with the Devil') 64-bit 2018-10-07 18:38:39 / mkvmerge v15.0.0 ('Duel with the Devil') 64-bit 2018-10-07 18:38:39 / UTC 2018-09-25T10:44:06Z
    FromStats_BitRate                        : 35067
    FromStats_Duration                       : 01:55:23.374000000
    FromStats_FrameCount                     : 2355
    FromStats_StreamSize                     : 30348278

    Text #2
    ID                                       : 5
    Format                                   : PGS
    Muxing mode                              : zlib
    Codec ID                                 : S_HDMV/PGS
    Codec ID/Info                            : Picture based subtitle format used on BDs/HD-DVDs
    Language                                 : Spanish
    Default                                  : No
    Forced                                   : No
    Statistics Tags Issue                    : mkvmerge v15.0.0 ('Duel with the Devil') 64-bit 2018-10-07 18:38:39 / mkvmerge v15.0.0 ('Duel with the Devil') 64-bit 2018-10-07 18:38:39 / UTC 2018-09-25T10:44:06Z
    FromStats_BitRate                        : 36662
    FromStats_Duration                       : 01:55:23.374000000
    FromStats_FrameCount                     : 2231
    FromStats_StreamSize                     : 31728915

    Menu
    00:00:00.000                             : :Chapter 1
    00:04:25.724                             : :Chapter 2
    00:10:20.078                             : :Chapter 3
    00:13:52.790                             : :Chapter 4
    00:19:05.603                             : :Chapter 5
    00:23:52.097                             : :Chapter 6
    00:26:28.712                             : :Chapter 7
    00:30:01.383                             : :Chapter 8
    00:35:51.399                             : :Chapter 9
    00:39:53.600                             : :Chapter 10
    00:42:31.466                             : :Chapter 11
    00:46:11.936                             : :Chapter 12
    00:50:05.920                             : :Chapter 13
    00:51:25.708                             : :Chapter 14
    00:55:31.370                             : :Chapter 15
    00:59:50.212                             : :Chapter 16
    01:05:03.608                             : :Chapter 17
    01:09:17.737                             : :Chapter 18
    01:13:29.614                             : :Chapter 19
    01:17:49.748                             : :Chapter 20
    01:23:23.707                             : :Chapter 21
    01:26:54.876                             : :Chapter 22
    01:32:41.306                             : :Chapter 23
    01:38:44.001                             : :Chapter 24
    01:42:28.851                             : :Chapter 25
    01:48:47.187                             : :Chapter 26
    01:51:51.914                             : :Chapter 27
    01:55:58.952                             : :Chapter 28

     

  • Peso: 10.2 GiB

Sinopsis

Divertida, inquietante y sorprendente incursión en la América suburbana a través de las vidas de Lester y Carolyn, una pareja perteneciente a la clase medio-alta cuyo matrimonio -y cuyas vidas- lentamente se deshacen. Carolyn odia a su marido, su hija lo desprecia y su jefe está a punto de despedirlo. Así que Lester decide cambiar algunas cosas en su vida; a medida que va siendo más libre, consigue ser más feliz, lo que enfurece más a su esposa y a su hija.

Ficha técnica

Video trailer de la película

Enlaces de descarga

Rip de Bluray

Descargar Belleza americana (1999) Full 1080p Latino




Aportes de DPeliculasHDmega la pass es:dpeliculashdmega.org Aportes de CinemaniaHD la pass es:cinemaniahdd.com
Guardado en : Drama , FULL 1080p Plateadas

Películas relacionadas

  • The Padre (2018) WEB-DL 1080p Latino

    2018
    The Padre (2018) WEB-DL 1080p Latino

    3.0 1h 38m 2018

    Descargar The Padre (2018) WEB-DL 1080p Latino; Mega, Google Drive. El juez estadounidense retirado Randall...

    Director: Jonathan Sobol

    Género: Drama

    Actores: Tim Roth

  • Paciente Cero (2018) Full 1080p Latino

    2018
    Paciente Cero (2018) Full 1080p Latino

    3.7 1h 26m 2018

    Paciente Cero (2018) Full 1080p Latino; Mega, Google Drive. Tras una pandemia sin precedentes, la Humanidad...

    Director: Stefan Ruzowitzky

    Género: Acción

    Actores: Yumiko Hanasaka

  • Paciente Cero (2018) 1080p Latino

    2018
    Paciente Cero (2018) 1080p Latino

    1.0 1h 26m 2018

    Descargar Paciente Cero (2018) 1080p Latino; Mega, Google Drive. Tras una pandemia sin precedentes, la...

    Director: Stefan Ruzowitzky

    Género: Acción

    Actores: Yumiko Hanasaka

Comentarios 0