Batman Ninja (2018) Full 1080p Latino

1.676 vistas
1 estrella2 estrellas3 estrellas4 estrellas5 estrellas (2 votos, promedio: 5,00 de 5)
Cargando…

Información de Batman Ninja (2018) Full 1080p Latino

Datos de la película

  • Calidad: Full 1080p
  • Audio: Español Latino AC3 5.1 BLURAY - Ingles DTS 5.1 BLURAY
  • Subtitulos: Español Latino PGS - Ingles PGS
  • Resolución: 1920x1080p
  • Formato: MKV
  • Codec: H.264
  • Encoder: Dracarys
  • Mediainfo: Clic para Mostrar Datos Ver
  • Format                                   : Matroska
    Format version                           : Version 4 / Version 2
    File size                                : 6.18 GiB
    Duration                                 : 1 h 25 min
    Overall bit rate                         : 10.4 Mb/s
    Movie name                               : CinemaniaHDD.com
    Encoded date                             : UTC 2018-05-01 04:53:28 / UTC 2018-05-01T00:54:25Z
    Writing application                      : mkvmerge v15.0.0 ('Duel with the Devil') 64-bit
    Writing library                          : libebml v1.3.5 + libmatroska v1.4.5 / Lavf57.7.2

    Video
    ID                                       : 1
    Format                                   : AVC
    Format/Info                              : Advanced Video Codec
    Format profile                           : High@L4.1
    Format settings                          : CABAC / 4 Ref Frames
    Format settings, CABAC                   : Yes
    Format settings, RefFrames               : 4 frames
    Codec ID                                 : V_MPEG4/ISO/AVC
    Duration                                 : 1 h 25 min
    Bit rate                                 : 8 020 kb/s
    Width                                    : 1 920 pixels
    Height                                   : 1 080 pixels
    Display aspect ratio                     : 16:9
    Frame rate mode                          : Constant
    Frame rate                               : 23.976 (24000/1001) FPS
    Color space                              : YUV
    Chroma subsampling                       : 4:2:0
    Bit depth                                : 8 bits
    Scan type                                : Progressive
    Bits/(Pixel*Frame)                       : 0.161
    Stream size                              : 4.78 GiB (77%)
    Title                                    : Batman Ninja (2018) Full 1080p Latino
    Writing library                          : x264 core 148 r2708 86b7198
    Encoding settings                        : cabac=1 / ref=4 / deblock=1:0:0 / analyse=0x3:0x133 / me=esa / subme=10 / psy=1 / psy_rd=1.00:0.00 / mixed_ref=1 / me_range=24 / chroma_me=1 / trellis=2 / 8x8dct=1 / cqm=0 / deadzone=21,11 / fast_pskip=1 / chroma_qp_offset=-2 / threads=34 / lookahead_threads=5 / sliced_threads=0 / nr=0 / decimate=1 / interlaced=0 / bluray_compat=0 / constrained_intra=0 / bframes=8 / b_pyramid=2 / b_adapt=2 / b_bias=0 / direct=3 / weightb=1 / open_gop=0 / weightp=2 / keyint=240 / keyint_min=24 / scenecut=40 / intra_refresh=0 / rc_lookahead=60 / rc=crf / mbtree=1 / crf=20.0 / qcomp=0.60 / qpmin=0 / qpmax=69 / qpstep=4 / vbv_maxrate=62500 / vbv_bufsize=78125 / crf_max=0.0 / nal_hrd=none / filler=0 / ip_ratio=1.40 / aq=1:1.00
    Language                                 : English
    Default                                  : Yes
    Forced                                   : No
    Color range                              : Limited
    Color primaries                          : BT.709
    Transfer characteristics                 : BT.709
    Matrix coefficients                      : BT.709
    Statistics Tags Issue                    : mkvmerge v15.0.0 ('Duel with the Devil') 64-bit 2018-05-01 04:53:28 / mkvmerge v15.0.0 ('Duel with the Devil') 64-bit 2018-05-01 04:53:28 / UTC 2018-05-01T00:54:25Z
    FromStats_BitRate                        : 8204634
    FromStats_Duration                       : 01:25:16.362000000
    FromStats_FrameCount                     : 122670
    FromStats_StreamSize                     : 5247235006

    Audio #1
    ID                                       : 2
    Format                                   : AC-3
    Format/Info                              : Audio Coding 3
    Format settings, Endianness              : Big
    Codec ID                                 : A_AC3
    Duration                                 : 1 h 25 min
    Bit rate mode                            : Constant
    Bit rate                                 : 640 kb/s
    Channel(s)                               : 6 channels
    Channel positions                        : Front: L C R, Side: L R, LFE
    Sampling rate                            : 48.0 kHz
    Frame rate                               : 31.250 FPS (1536 SPF)
    Bit depth                                : 16 bits
    Compression mode                         : Lossy
    Stream size                              : 390 MiB (6%)
    Language                                 : Spanish
    Service kind                             : Complete Main
    Default                                  : Yes
    Forced                                   : No
    Statistics Tags Issue                    : mkvmerge v15.0.0 ('Duel with the Devil') 64-bit 2018-05-01 04:53:28 / mkvmerge v15.0.0 ('Duel with the Devil') 64-bit 2018-05-01 04:53:28 / UTC 2018-05-01T00:54:25Z
    FromStats_BitRate                        : 640000
    FromStats_Duration                       : 01:25:16.416000000
    FromStats_FrameCount                     : 159888
    FromStats_StreamSize                     : 409313280

    Audio #2
    ID                                       : 3
    Format                                   : DTS
    Format/Info                              : Digital Theater Systems
    Mode                                     : 16
    Format settings, Endianness              : Big
    Codec ID                                 : A_DTS
    Duration                                 : 1 h 25 min
    Bit rate mode                            : Constant
    Bit rate                                 : 1 509 kb/s
    Channel(s)                               : 6 channels
    Channel positions                        : Front: L C R, Side: L R, LFE
    Sampling rate                            : 48.0 kHz
    Frame rate                               : 93.750 FPS (512 SPF)
    Bit depth                                : 24 bits
    Compression mode                         : Lossy
    Stream size                              : 920 MiB (15%)
    Language                                 : English
    Default                                  : No
    Forced                                   : No
    Statistics Tags Issue                    : mkvmerge v15.0.0 ('Duel with the Devil') 64-bit 2018-05-01 04:53:28 / mkvmerge v15.0.0 ('Duel with the Devil') 64-bit 2018-05-01 04:53:28 / UTC 2018-05-01T00:54:25Z
    FromStats_BitRate                        : 1508999
    FromStats_Duration                       : 01:25:16.395000000
    FromStats_FrameCount                     : 479662
    FromStats_StreamSize                     : 965079944

    Text #1
    ID                                       : 4
    Format                                   : PGS
    Muxing mode                              : zlib
    Codec ID                                 : S_HDMV/PGS
    Codec ID/Info                            : Picture based subtitle format used on BDs/HD-DVDs
    Language                                 : Spanish
    Default                                  : No
    Forced                                   : No
    Statistics Tags Issue                    : mkvmerge v15.0.0 ('Duel with the Devil') 64-bit 2018-05-01 04:53:28 / mkvmerge v15.0.0 ('Duel with the Devil') 64-bit 2018-05-01 04:53:28 / UTC 2018-05-01T00:54:25Z
    FromStats_BitRate                        : 27947
    FromStats_Duration                       : 01:24:31.566000000
    FromStats_FrameCount                     : 1720
    FromStats_StreamSize                     : 17716952

    Text #2
    ID                                       : 5
    Format                                   : PGS
    Muxing mode                              : zlib
    Codec ID                                 : S_HDMV/PGS
    Codec ID/Info                            : Picture based subtitle format used on BDs/HD-DVDs
    Language                                 : English
    Default                                  : No
    Forced                                   : No
    Statistics Tags Issue                    : mkvmerge v15.0.0 ('Duel with the Devil') 64-bit 2018-05-01 04:53:28 / mkvmerge v15.0.0 ('Duel with the Devil') 64-bit 2018-05-01 04:53:28 / UTC 2018-05-01T00:54:25Z
    FromStats_BitRate                        : 34762
    FromStats_Duration                       : 01:24:28.189000000
    FromStats_FrameCount                     : 2318
    FromStats_StreamSize                     : 22022707

    Menu
    00:00:00.000                             : :Chapter 1
    00:08:32.345                             : :Chapter 2
    00:22:30.683                             : :Chapter 3
    00:31:12.537                             : :Chapter 4
    00:42:46.689                             : :Chapter 5
    00:51:34.425                             : :Chapter 6
    01:01:01.449                             : :Chapter 7
    01:12:15.832                             : :Chapter 8
    01:20:28.657                             : :Chapter 9

  • Peso: 6.18 GiB

Sinopsis

Batman, junto a sus aliados y enemigos, se ve transportado desde la moderna Gotham hasta el Japón feudal. Film animado coproducido entre Japón y EEUU que cuenta con guión de Kazuki Nakashima (Kill La Kill) and diseño de personajes Takashi Okazaki (Afro Samurai)

Ficha técnica

Video trailer de la película

Enlaces de descarga

Rip de Bluray

Descargar Batman Ninja (2018) Full 1080p Latino




Aportes de DPeliculasHDmega la pass es:dpeliculashdmega.org Aportes de CinemaniaHD la pass es:cinemaniahdd.com

Películas relacionadas

  • Sicario (2015) Full 1080p Latino

    2015
    Sicario (2015) Full 1080p Latino

    5.0 2h 1m 2015

    En la zona fronteriza que se extiende entre Estados Unidos y México la joven Kate Macer, una idealista...

    Director: Judi Townsend

    Género: Acción

    Actores: Victor Garber

  • Fahrenheit 451 (2018) Full 1080p Latino

    2018
    Fahrenheit 451 (2018) Full 1080p Latino

    5.0 1h 36m 2018

    Michael B. Jordan y Michael Shannon protagonizan esta adaptación de HBO de la clásica novela distópica...

    Director: Ramin Bahrani

    Género: Ciencia ficción

    Actores: Tim Post

Comentarios 2
  • Jonna - 01 mayo, 2018

    Muchas gracias. Se podra conseguir el audio japones?

    • Dracarys - 01 mayo, 2018

      no creo que se vuelva a subir