Babymetal – Live at Wembley (2016) Full 1080p Concierto

943 vistas
1 estrella2 estrellas3 estrellas4 estrellas5 estrellas (4 votos, promedio: 5,00 de 5)
Cargando…

Información de Babymetal – Live at Wembley (2016) Full 1080p Concierto

Datos de la película

  • Calidad: Full 1080p
  • Audio: Se especifica abajo de la Sinopsis
  • Subtitulos: No
  • Resolución: 1920x1080p
  • Formato: MKV
  • Codec: H.264
  • Encoder: Dracarys
  • Mediainfo: Clic para Mostrar Datos Ver
  • Format                                   : Matroska
    Format version                           : Version 4 / Version 2
    File size                                : 7.98 GiB
    Duration                                 : 1 h 43 min
    Overall bit rate                         : 11.0 Mb/s
    Movie name                               : CinemaniaHDD.net
    Encoded date                             : UTC 2018-05-25 02:42:20 / UTC 2018-05-24T21:52:38Z
    Writing application                      : mkvmerge v15.0.0 ('Duel with the Devil') 64-bit
    Writing library                          : libebml v1.3.5 + libmatroska v1.4.5 / Lavf57.7.2

    Video
    ID                                       : 1
    Format                                   : AVC
    Format/Info                              : Advanced Video Codec
    Format profile                           : High@L4.1
    Format settings                          : CABAC / 4 Ref Frames
    Format settings, CABAC                   : Yes
    Format settings, RefFrames               : 4 frames
    Codec ID                                 : V_MPEG4/ISO/AVC
    Duration                                 : 1 h 43 min
    Bit rate                                 : 10.6 Mb/s
    Width                                    : 1 920 pixels
    Height                                   : 1 080 pixels
    Display aspect ratio                     : 16:9
    Frame rate mode                          : Constant
    Frame rate                               : 23.976 (24000/1001) FPS
    Color space                              : YUV
    Chroma subsampling                       : 4:2:0
    Bit depth                                : 8 bits
    Scan type                                : Progressive
    Bits/(Pixel*Frame)                       : 0.212
    Stream size                              : 7.66 GiB (96%)
    Title                                    : Babymetal - Live at Wembley (2016) Full 1080p Concierto
    Writing library                          : x264 core 148 r2708 86b7198
    Encoding settings                        : cabac=1 / ref=4 / deblock=1:0:0 / analyse=0x3:0x133 / me=esa / subme=9 / psy=1 / psy_rd=1.00:0.00 / mixed_ref=1 / me_range=16 / chroma_me=1 / trellis=2 / 8x8dct=1 / cqm=0 / deadzone=21,11 / fast_pskip=1 / chroma_qp_offset=-2 / threads=34 / lookahead_threads=2 / sliced_threads=0 / nr=0 / decimate=1 / interlaced=0 / bluray_compat=0 / constrained_intra=0 / bframes=3 / b_pyramid=2 / b_adapt=2 / b_bias=0 / direct=3 / weightb=1 / open_gop=0 / weightp=2 / keyint=240 / keyint_min=24 / scenecut=40 / intra_refresh=0 / rc_lookahead=60 / rc=crf / mbtree=1 / crf=20.0 / qcomp=0.60 / qpmin=0 / qpmax=69 / qpstep=4 / vbv_maxrate=62500 / vbv_bufsize=78125 / crf_max=0.0 / nal_hrd=none / filler=0 / ip_ratio=1.40 / aq=1:1.00
    Language                                 : English
    Default                                  : Yes
    Forced                                   : No
    Color range                              : Limited
    Color primaries                          : BT.709
    Transfer characteristics                 : BT.709
    Matrix coefficients                      : BT.709
    Statistics Tags Issue                    : mkvmerge v15.0.0 ('Duel with the Devil') 64-bit 2018-05-25 02:42:20 / mkvmerge v15.0.0 ('Duel with the Devil') 64-bit 2018-05-25 02:42:20 / UTC 2018-05-24T21:52:38Z
    FromStats_BitRate                        : 10775595
    FromStats_Duration                       : 01:43:50.141000000
    FromStats_FrameCount                     : 149374
    FromStats_StreamSize                     : 8391684557

    Audio
    ID                                       : 2
    Format                                   : AC-3
    Format/Info                              : Audio Coding 3
    Format settings, Endianness              : Big
    Codec ID                                 : A_AC3
    Duration                                 : 1 h 43 min
    Bit rate mode                            : Constant
    Bit rate                                 : 224 kb/s
    Channel(s)                               : 2 channels
    Channel positions                        : Front: L R
    Sampling rate                            : 48.0 kHz
    Frame rate                               : 31.250 FPS (1536 SPF)
    Bit depth                                : 16 bits
    Compression mode                         : Lossy
    Delay relative to video                  : -5 ms
    Stream size                              : 166 MiB (2%)
    Language                                 : Japanese
    Service kind                             : Complete Main
    Default                                  : Yes
    Forced                                   : No
    Statistics Tags Issue                    : mkvmerge v15.0.0 ('Duel with the Devil') 64-bit 2018-05-25 02:42:20 / mkvmerge v15.0.0 ('Duel with the Devil') 64-bit 2018-05-25 02:42:20 / UTC 2018-05-24T21:52:38Z
    FromStats_BitRate                        : 224000
    FromStats_Duration                       : 01:43:50.176000000
    FromStats_FrameCount                     : 194693
    FromStats_StreamSize                     : 174444928

    Menu
    00:00:00.042                             : :Chapter 1
    00:00:56.557                             : :Chapter 2
    00:07:31.201                             : :Chapter 3
    00:11:48.249                             : :Chapter 4
    00:16:20.521                             : :Chapter 5
    00:20:18.884                             : :Chapter 6
    00:27:46.707                             : :Chapter 7
    00:30:48.096                             : :Chapter 8
    00:32:50.010                             : :Chapter 9
    00:36:44.661                             : :Chapter 10
    00:40:38.645                             : :Chapter 11
    00:44:56.861                             : :Chapter 12
    00:46:02.802                             : :Chapter 13
    00:52:05.372                             : :Chapter 14
    00:57:38.580                             : :Chapter 15
    01:03:21.214                             : :Chapter 16
    01:07:43.142                             : :Chapter 17
    01:08:43.119                             : :Chapter 18
    01:14:46.107                             : :Chapter 19
    01:20:00.838                             : :Chapter 20
    01:21:22.336                             : :Chapter 21
    01:29:43.837                             : :Chapter 22
    01:30:24.294                             : :Chapter 23
    01:31:33.822                             : :Chapter 24
    01:42:10.166                             : :Chapter 25

  • Peso: 7.98 GiB

Sinopsis

La sensación musical japonesa Babymetal abre su gira mundial de 2016 en el SSE Arena, Wembley, Londres, Inglaterra. Este espectáculo del 2 de abril de 2016 convirtió a Babymetal en la primera banda japonesa en titular en el Wembley Arena. Además de su set habitual, este concierto incluyó el debut en vivo de sus nuevas canciones GJ! y Amore.

 

Audio: 2.0 Bluray

Ficha técnica

  • Titulo original: Babymetal - Live at Wembley
  • Fecha de lanzamiento: 23-11-2016 (Japan)
  • Género: FULL 1080p Plateadas, Música
  • Puntuación: 5.0 4 votos
  • Duración:
    1 h 43 min

Video trailer de la película

Enlaces de descarga

Rip de Bluray

Descargar Babymetal – Live at Wembley (2016) Full 1080p Concierto




Aportes de DPeliculasHDmega la pass es:dpeliculashdmega.org Aportes de CinemaniaHD la pass es:cinemaniahdd.com
Guardado en : FULL 1080p Plateadas , Música

Películas relacionadas

  • Sicario (2015) Full 1080p Latino

    2015
    Sicario (2015) Full 1080p Latino

    5.0 2h 1m 2015

    En la zona fronteriza que se extiende entre Estados Unidos y México la joven Kate Macer, una idealista...

    Director: Judi Townsend

    Género: Acción

    Actores: Victor Garber

  • Fahrenheit 451 (2018) Full 1080p Latino

    2018
    Fahrenheit 451 (2018) Full 1080p Latino

    5.0 1h 36m 2018

    Michael B. Jordan y Michael Shannon protagonizan esta adaptación de HBO de la clásica novela distópica...

    Director: Ramin Bahrani

    Género: Ciencia ficción

    Actores: Tim Post

  • Atlantis el imperio perdido (2001) Full 1080p Latino

    2001
    Atlantis el imperio perdido (2001) Full 1080p Latino

    5.0 1h 35m 2001

    Un joven aventurero llamado Milo encuentra un antiguo diario que contiene pistas de cómo llegar a Atlantis,...

    Director: Lam Hoang

    Género: Animación

    Actores: Phil Morris

Comentarios 5
  • Felipe Geo - 25 mayo, 2018

    Hola, me encantan sus aportes. Y los comparto. Podrían subir el nuevo blu-ray o dvd de la banda Bullet For My Valentine? Llamado “Bullet For My Valentine live From Brixton Chapter Two”. Desde ya muchas gracias 🙂

    • Aldair Jesus - 21 junio, 2018

      Oh! de verdad seria magnifico, pero la cuestion con ese concierto es que son dos separados 🙁 la noche uno con todod sus exitos y la noche dos donde tocaron todo The Poison, veo dificil que lo llegaran a subir. El que estaria magnifico que publicaran seria el de Sangre, Sudor y Gloria de Metallica.

  • Alexis Sopla - 25 mayo, 2018

    Excelente material, gracias.

  • ATERRADO - 25 mayo, 2018

    BABYMETAL!!! ME LO BAJO Y MUCHAS GRACIAS!!!

  • cross zael - 25 mayo, 2018

    uhmmm me gusta esta banda hace poco y ahora me vienen con esto enserio se pasaron un gusto y gracias