Avatar (2009) EXTENDED Full 1080p Latino

3.290 vistas
1 estrella2 estrellas3 estrellas4 estrellas5 estrellas (2 votos, promedio: 5,00 de 5)
Cargando…

Información de Avatar (2009) EXTENDED Full 1080p Latino

Datos de la película

  • Calidad: Full 1080p
  • Audio: Español Latino AC3 5.1 BLURAY - Ingles DTS 5.1 BLURAY
  • Subtitulos: Español Latino PGS - Ingles PGS
  • Resolución: 1920X1080
  • Formato: MKV
  • Codec: H.264
  • Encoder: Dpelis
  • Mediainfo: Clic para Mostrar Datos Ver
  • Format                                   : Matroska
    Format version                           : Version 4 / Version 2
    File size                                : 13.9 GiB
    Duration                                 : 2 h 58 min
    Overall bit rate                         : 11.1 Mb/s
    Movie name                               : dpeliculashdmega.org
    Encoded date                             : UTC 2017-11-22 21:12:38 / UTC 2017-11-22T01:06:13Z
    Writing application                      : mkvmerge v15.0.0 ('Duel with the Devil') 64-bit
    Writing library                          : libebml v1.3.5 + libmatroska v1.4.5 / Lavf57.7.2

    Video
    ID                                       : 1
    Format                                   : AVC
    Format/Info                              : Advanced Video Codec
    Format profile                           : High@L4.1
    Format settings                          : CABAC / 4 Ref Frames
    Format settings, CABAC                   : Yes
    Format settings, RefFrames               : 4 frames
    Codec ID                                 : V_MPEG4/ISO/AVC
    Duration                                 : 2 h 58 min
    Bit rate                                 : 8 952 kb/s
    Width                                    : 1 920 pixels
    Height                                   : 1 080 pixels
    Display aspect ratio                     : 16:9
    Frame rate mode                          : Constant
    Frame rate                               : 23.976 (24000/1001) FPS
    Color space                              : YUV
    Chroma subsampling                       : 4:2:0
    Bit depth                                : 8 bits
    Scan type                                : Progressive
    Bits/(Pixel*Frame)                       : 0.180
    Stream size                              : 11.1 GiB (80%)
    Title                                    : Avatar (2009) EXTENDED Full 1080p Latino
    Writing library                          : x264 core 148 r2708 86b7198
    Encoding settings                        : cabac=1 / ref=4 / deblock=1:0:0 / analyse=0x3:0x133 / me=esa / subme=10 / psy=1 / psy_rd=1.00:0.00 / mixed_ref=1 / me_range=24 / chroma_me=1 / trellis=2 / 8x8dct=1 / cqm=0 / deadzone=21,11 / fast_pskip=1 / chroma_qp_offset=-2 / threads=34 / lookahead_threads=5 / sliced_threads=0 / nr=0 / decimate=1 / interlaced=0 / bluray_compat=0 / constrained_intra=0 / bframes=8 / b_pyramid=2 / b_adapt=2 / b_bias=0 / direct=3 / weightb=1 / open_gop=0 / weightp=2 / keyint=240 / keyint_min=24 / scenecut=40 / intra_refresh=0 / rc_lookahead=60 / rc=crf / mbtree=1 / crf=20.0 / qcomp=0.60 / qpmin=0 / qpmax=69 / qpstep=4 / vbv_maxrate=62500 / vbv_bufsize=78125 / crf_max=0.0 / nal_hrd=none / filler=0 / ip_ratio=1.40 / aq=1:1.00
    Language                                 : English
    Default                                  : Yes
    Forced                                   : No
    Color range                              : Limited
    Color primaries                          : BT.709
    Transfer characteristics                 : BT.709
    Matrix coefficients                      : BT.709
    Statistics Tags Issue                    : mkvmerge v15.0.0 ('Duel with the Devil') 64-bit 2017-11-22 21:12:38 / mkvmerge v15.0.0 ('Duel with the Devil') 64-bit 2017-11-22 21:12:38 / UTC 2017-11-22T01:06:13Z
    FromStats_BitRate                        : 9154014
    FromStats_Duration                       : 02:58:09.429000000
    FromStats_FrameCount                     : 256290
    FromStats_StreamSize                     : 12231399152

    Audio #1
    ID                                       : 2
    Format                                   : AC-3
    Format/Info                              : Audio Coding 3
    Format settings, Endianness              : Big
    Codec ID                                 : A_AC3
    Duration                                 : 2 h 58 min
    Bit rate mode                            : Constant
    Bit rate                                 : 448 kb/s
    Channel(s)                               : 6 channels
    Channel positions                        : Front: L C R, Side: L R, LFE
    Sampling rate                            : 48.0 kHz
    Frame rate                               : 31.250 FPS (1536 SPF)
    Bit depth                                : 16 bits
    Compression mode                         : Lossy
    Stream size                              : 571 MiB (4%)
    Title                                    : Latino-AC3
    Language                                 : Spanish
    Service kind                             : Complete Main
    Default                                  : Yes
    Forced                                   : No
    Statistics Tags Issue                    : mkvmerge v15.0.0 ('Duel with the Devil') 64-bit 2017-11-22 21:12:38 / mkvmerge v15.0.0 ('Duel with the Devil') 64-bit 2017-11-22 21:12:38 / UTC 2017-11-22T01:06:13Z
    FromStats_BitRate                        : 448000
    FromStats_Duration                       : 02:58:09.504000000
    FromStats_FrameCount                     : 334047
    FromStats_StreamSize                     : 598612224

    Audio #2
    ID                                       : 3
    Format                                   : DTS
    Format/Info                              : Digital Theater Systems
    Mode                                     : 16
    Format settings, Endianness              : Big
    Codec ID                                 : A_DTS
    Duration                                 : 2 h 58 min
    Bit rate mode                            : Constant
    Bit rate                                 : 1 509 kb/s
    Channel(s)                               : 6 channels
    Channel positions                        : Front: L C R, Side: L R, LFE
    Sampling rate                            : 48.0 kHz
    Frame rate                               : 93.750 FPS (512 SPF)
    Bit depth                                : 24 bits
    Compression mode                         : Lossy
    Stream size                              : 1.88 GiB (14%)
    Title                                    : Ingles-DTS
    Language                                 : English
    Default                                  : No
    Forced                                   : No
    Statistics Tags Issue                    : mkvmerge v15.0.0 ('Duel with the Devil') 64-bit 2017-11-22 21:12:38 / mkvmerge v15.0.0 ('Duel with the Devil') 64-bit 2017-11-22 21:12:38 / UTC 2017-11-22T01:06:13Z
    FromStats_BitRate                        : 1509000
    FromStats_Duration                       : 02:58:09.472000000
    FromStats_FrameCount                     : 1002138
    FromStats_StreamSize                     : 2016301656

    Text #1
    ID                                       : 4
    Format                                   : PGS
    Muxing mode                              : zlib
    Codec ID                                 : S_HDMV/PGS
    Codec ID/Info                            : Picture based subtitle format used on BDs/HD-DVDs
    Language                                 : English
    Default                                  : No
    Forced                                   : No
    Statistics Tags Issue                    : mkvmerge v15.0.0 ('Duel with the Devil') 64-bit 2017-11-22 21:12:38 / mkvmerge v15.0.0 ('Duel with the Devil') 64-bit 2017-11-22 21:12:38 / UTC 2017-11-22T01:06:13Z
    FromStats_BitRate                        : 24677
    FromStats_Duration                       : 02:57:24.884000000
    FromStats_FrameCount                     : 2801
    FromStats_StreamSize                     : 32836402

    Text #2
    ID                                       : 5
    Format                                   : PGS
    Muxing mode                              : zlib
    Codec ID                                 : S_HDMV/PGS
    Codec ID/Info                            : Picture based subtitle format used on BDs/HD-DVDs
    Language                                 : Spanish
    Default                                  : No
    Forced                                   : No
    Statistics Tags Issue                    : mkvmerge v15.0.0 ('Duel with the Devil') 64-bit 2017-11-22 21:12:38 / mkvmerge v15.0.0 ('Duel with the Devil') 64-bit 2017-11-22 21:12:38 / UTC 2017-11-22T01:06:13Z
    FromStats_BitRate                        : 23575
    FromStats_Duration                       : 02:57:24.884000000
    FromStats_FrameCount                     : 2810
    FromStats_StreamSize                     : 31370317

    Menu
    00:00:00.000                             : :Lost Soul
    00:05:25.575                             : :A New World
    00:10:24.457                             : :You Are Not in Kansas Anymore
    00:11:47.916                             : :"This Is Your Avatar Now, Jake."
    00:15:59.208                             : :"This Is Why We're Here..."
    00:23:54.892                             : :Meeting Trudy
    00:24:40.104                             : :Colonel Quaritch
    00:27:54.548                             : :First Sortie
    00:30:27.617                             : :Abandoned Schoolhouse
    00:32:04.464                             : :Thanator Chase
    00:37:16.526                             : :A Sign
    00:39:08.054                             : :Viperwolves
    00:41:18.476                             : :Neytiri
    00:49:16.912                             : :The Omaticaya Clan
    00:55:42.214                             : :Covert Report
    01:01:09.416                             : :The Hallelujah Mountains
    01:07:03.228                             : :Learn Fast or Die
    01:11:50.223                             : :A Mother's Pain
    01:18:07.892                             : :Banshee Rookery
    01:22:38.120                             : :First Flight
    01:26:12.709                             : :Clan Hunt
    01:27:54.436                             : :Last Shadow
    01:33:00.408                             : :A Son of the Omaticaya
    01:37:36.642                             : :Willow Glade Destruction
    01:46:49.236                             : :Conflict Escalation
    01:50:02.596                             : :"You Will Never Be One of the People!"
    01:51:53.582                             : :Assault on Home Tree
    01:58:30.895                             : :Aftermath
    02:02:13.284                             : :Escape From Hell's Gate
    02:07:51.664                             : :"There's Something We Gotta Do..."
    02:09:30.554                             : :Toruk Macto
    02:12:36.615                             : :"She's Real"
    02:16:03.364                             : :Recuiting the Clans
    02:19:31.655                             : :Preamble to Battle
    02:23:59.631                             : :Battle for Pandora
    02:32:13.291                             : :Fall of the Heroes
    02:34:52.909                             : :Eywa
    02:40:02.259                             : :Quaritch Fight
    02:46:30.814                             : :"I See You"
    02:46:48.499                             : :My Brother
    02:48:56.793                             : :Transformation
    02:51:32.073                             : :End Credits

     

  • Peso: 13.9 GiB

Sinopsis

Jake Sully, un ex-marine confinado a una silla de ruedas, es reclutado para viajar al planeta Pandora, donde un consorcio corporativo está extrayendo un mineral que será clave en la solución de la crisis energética de la Tierra. Debido a que la atmósfera de Pandora es tóxica, han creado el Programa Avatar, en el que ‘conductores’ humanos tienen sus conciencias unidas a un avatar,… un cuerpo biológico controlado de manera remota que puede sobrevivir en ese entorno. Estos avatares han sido creados genéticamente como híbridos combinando ADN humano con el de los nativos de Pandora… los Na’vi. Convertido en un avatar, Jake puede volver a caminar. Se le asigna la misión de infiltrarse entre los Na’vi, que se han convertido en un obstáculo importante para la extracción del preciado mineral. Pero Neytiri, una hermosa mujer Na’vi, le salvará la vida, y esto lo cambiará todo…

Ficha técnica

Video trailer de la película

Enlaces de descarga

Rip de Bluray

Descargar Avatar (2009) EXTENDED Full 1080p Latino




Aportes de DPeliculasHDmega la pass es:dpeliculashdmega.org Aportes de CinemaniaHD la pass es:cinemaniahdd.com

Películas relacionadas

  • Lady Bird (2017) Full 1080p Latino

    2017
    Lady Bird (2017) Full 1080p Latino

    5.0 1h 34m 2017

    Sacramento, California, año 2002. Una joven llamada Christine McPherson (Saoirse Ronan), apodada como...

    Director: Jonas Spaccarotelli

    Género: Comedia

    Actores: Tracy Letts

  • Plan de escape (2013) Full 1080p Latino

    2013
    Plan de escape (2013) Full 1080p Latino

    3.0 1h 56m 2013

    El experto en seguridad Ray Breslin prueba sus teorías poco convencionales en diseño de prisiones elaborando...

    Director: Mikael Håfström

    Género: Acción

    Actores: Vinnie Jones

Comentarios 10
  • JOHNSON2018 - 16 enero, 2018

    lo unico que creo que se olvidaron los subtitulos forzados en psg.. siempre le pasa eso..

  • JOHNSON2018 - 15 enero, 2018

    eso es un milagro por lo las extendida no vienen en latino biene casi siempre con ingles en subtitulo en español ojala estos productores como cameron lo imiten version full extendido en latino muy bien …

    • dpelis - 15 enero, 2018

      si muy mal.

  • She - 23 noviembre, 2017

    Cual es la diferencia entre AC3 y DTS? en los audios

    • dpelis - 24 noviembre, 2017

      el dts mayor calidad pero no toda las tv leen ese codec

  • Josse - 23 noviembre, 2017

    Tiene partes en ingles? Y si tiene trae subtitulo Forzados?

    • Dpelis2 - 23 noviembre, 2017

      No trae partes en Ingles… esta completamente en latino!

  • leonidas2016 - 22 noviembre, 2017

    Una maravilla del cine y extendida, gracias totales

  • Tio Higuera - 22 noviembre, 2017

    Buenísima pelicula.