Atómica (2017) 1080p Latino

1.761 vistas
1 estrella2 estrellas3 estrellas4 estrellas5 estrellas (Ninguna valoración todavía)
Cargando…

Información de Atómica (2017) 1080p Latino

Datos de la película

  • Calidad: 1080p
  • Audio: Español Latino AC3 5.1 DVD - Ingles AC3 5.1 BLURAY
  • Subtitulos: Español Latino SRT
  • Resolución: 1920X800
  • Formato: MKV
  • Codec: H.264
  • Encoder: Dpelis
  • Mediainfo: Clic para Mostrar Datos Ver
  • Format                                   : Matroska
    Format version                           : Version 4 / Version 2
    File size                                : 3.46 GiB
    Duration                                 : 1 h 54 min
    Overall bit rate                         : 4 323 kb/s
    Movie name                               : dpeliculashdmega.org
    Encoded date                             : UTC 2017-11-02 23:48:41 / UTC 2017-11-02T22:45:38Z
    Writing application                      : mkvmerge v15.0.0 ('Duel with the Devil') 64-bit
    Writing library                          : libebml v1.3.5 + libmatroska v1.4.5 / Lavf57.7.2

    Video
    ID                                       : 1
    Format                                   : AVC
    Format/Info                              : Advanced Video Codec
    Format profile                           : High@L4.1
    Format settings                          : CABAC / 5 Ref Frames
    Format settings, CABAC                   : Yes
    Format settings, RefFrames               : 5 frames
    Codec ID                                 : V_MPEG4/ISO/AVC
    Duration                                 : 1 h 54 min
    Bit rate                                 : 3 500 kb/s
    Width                                    : 1 920 pixels
    Height                                   : 804 pixels
    Display aspect ratio                     : 2.40:1
    Frame rate mode                          : Constant
    Frame rate                               : 23.976 (24000/1001) FPS
    Color space                              : YUV
    Chroma subsampling                       : 4:2:0
    Bit depth                                : 8 bits
    Scan type                                : Progressive
    Bits/(Pixel*Frame)                       : 0.095
    Stream size                              : 2.78 GiB (80%)
    Title                                    : Atómica (2017) 1080p Latino
    Writing library                          : x264 core 148 r2708 86b7198
    Encoding settings                        : cabac=1 / ref=5 / deblock=1:0:0 / analyse=0x3:0x113 / me=umh / subme=8 / psy=1 / psy_rd=1.00:0.00 / mixed_ref=1 / me_range=16 / chroma_me=1 / trellis=1 / 8x8dct=1 / cqm=0 / deadzone=21,11 / fast_pskip=1 / chroma_qp_offset=-2 / threads=25 / lookahead_threads=4 / sliced_threads=0 / nr=0 / decimate=1 / interlaced=0 / bluray_compat=0 / constrained_intra=0 / bframes=3 / b_pyramid=2 / b_adapt=2 / b_bias=0 / direct=3 / weightb=1 / open_gop=0 / weightp=2 / keyint=240 / keyint_min=24 / scenecut=40 / intra_refresh=0 / rc_lookahead=50 / rc=abr / mbtree=1 / bitrate=3500 / ratetol=1.0 / qcomp=0.60 / qpmin=0 / qpmax=69 / qpstep=4 / vbv_maxrate=62500 / vbv_bufsize=78125 / nal_hrd=none / filler=0 / ip_ratio=1.40 / aq=1:1.00
    Language                                 : English
    Default                                  : Yes
    Forced                                   : No
    Color range                              : Limited
    Color primaries                          : BT.709
    Transfer characteristics                 : BT.709
    Matrix coefficients                      : BT.709
    Statistics Tags Issue                    : mkvmerge v15.0.0 ('Duel with the Devil') 64-bit 2017-11-02 23:48:41 / mkvmerge v15.0.0 ('Duel with the Devil') 64-bit 2017-11-02 23:48:41 / UTC 2017-11-02T22:45:38Z
    FromStats_BitRate                        : 3552690
    FromStats_Duration                       : 01:54:44.253000000
    FromStats_FrameCount                     : 165057
    FromStats_StreamSize                     : 3057202957

    Audio #1
    ID                                       : 2
    Format                                   : AC-3
    Format/Info                              : Audio Coding 3
    Format settings, Endianness              : Big
    Codec ID                                 : A_AC3
    Duration                                 : 1 h 54 min
    Bit rate mode                            : Constant
    Bit rate                                 : 384 kb/s
    Channel(s)                               : 6 channels
    Channel positions                        : Front: L C R, Side: L R, LFE
    Sampling rate                            : 48.0 kHz
    Frame rate                               : 31.250 FPS (1536 SPF)
    Bit depth                                : 16 bits
    Compression mode                         : Lossy
    Delay relative to video                  : -5 ms
    Stream size                              : 315 MiB (9%)
    Title                                    : Latino-AC3
    Language                                 : Spanish
    Service kind                             : Complete Main
    Default                                  : Yes
    Forced                                   : No
    Statistics Tags Issue                    : mkvmerge v15.0.0 ('Duel with the Devil') 64-bit 2017-11-02 23:48:41 / mkvmerge v15.0.0 ('Duel with the Devil') 64-bit 2017-11-02 23:48:41 / UTC 2017-11-02T22:45:38Z
    FromStats_BitRate                        : 384000
    FromStats_Duration                       : 01:54:44.256000000
    FromStats_FrameCount                     : 215133
    FromStats_StreamSize                     : 330444288

    Audio #2
    ID                                       : 3
    Format                                   : AC-3
    Format/Info                              : Audio Coding 3
    Format settings, Endianness              : Big
    Codec ID                                 : A_AC3
    Duration                                 : 1 h 54 min
    Bit rate mode                            : Constant
    Bit rate                                 : 384 kb/s
    Channel(s)                               : 6 channels
    Channel positions                        : Front: L C R, Side: L R, LFE
    Sampling rate                            : 48.0 kHz
    Frame rate                               : 31.250 FPS (1536 SPF)
    Bit depth                                : 16 bits
    Compression mode                         : Lossy
    Delay relative to video                  : -5 ms
    Stream size                              : 315 MiB (9%)
    Title                                    : Ingles-AC3
    Language                                 : English
    Service kind                             : Complete Main
    Default                                  : No
    Forced                                   : No
    Statistics Tags Issue                    : mkvmerge v15.0.0 ('Duel with the Devil') 64-bit 2017-11-02 23:48:41 / mkvmerge v15.0.0 ('Duel with the Devil') 64-bit 2017-11-02 23:48:41 / UTC 2017-11-02T22:45:38Z
    FromStats_BitRate                        : 384000
    FromStats_Duration                       : 01:54:44.288000000
    FromStats_FrameCount                     : 215134
    FromStats_StreamSize                     : 330445824

    Text #1
    ID                                       : 4
    Format                                   : UTF-8
    Codec ID                                 : S_TEXT/UTF8
    Codec ID/Info                            : UTF-8 Plain Text
    Title                                    : Forzados
    Language                                 : Spanish
    Default                                  : Yes
    Forced                                   : No
    Statistics Tags Issue                    : mkvmerge v15.0.0 ('Duel with the Devil') 64-bit 2017-11-02 23:48:41 / mkvmerge v15.0.0 ('Duel with the Devil') 64-bit 2017-11-02 23:48:41 / UTC 2017-11-02T22:45:38Z
    FromStats_BitRate                        : 1
    FromStats_Duration                       : 01:47:31.561000000
    FromStats_FrameCount                     : 38
    FromStats_StreamSize                     : 911

    Text #2
    ID                                       : 5
    Format                                   : UTF-8
    Codec ID                                 : S_TEXT/UTF8
    Codec ID/Info                            : UTF-8 Plain Text
    Title                                    : Completos
    Language                                 : Spanish
    Default                                  : No
    Forced                                   : No
    Statistics Tags Issue                    : mkvmerge v15.0.0 ('Duel with the Devil') 64-bit 2017-11-02 23:48:41 / mkvmerge v15.0.0 ('Duel with the Devil') 64-bit 2017-11-02 23:48:41 / UTC 2017-11-02T22:45:38Z
    FromStats_BitRate                        : 38
    FromStats_Duration                       : 01:47:49.204000000
    FromStats_FrameCount                     : 926
    FromStats_StreamSize                     : 31466

    Menu
    00:00:00.000                             : :00:00:00.000
    00:06:47.991                             : :00:06:47.991
    00:11:03.163                             : :00:11:03.162
    00:18:17.221                             : :00:18:17.221
    00:24:15.621                             : :00:24:15.579
    00:27:47.166                             : :00:27:47.165
    00:32:50.010                             : :00:32:50.010
    00:36:20.136                             : :00:36:20.095
    00:40:46.152                             : :00:40:46.152
    00:47:55.664                             : :00:47:55.664
    00:53:13.524                             : :00:53:13.482
    00:59:54.216                             : :00:59:54.090
    01:03:32.767                             : :01:03:32.767
    01:08:03.788                             : :01:08:03.788
    01:10:52.540                             : :01:10:52.415
    01:18:27.620                             : :01:18:27.453
    01:24:28.272                             : :01:24:28.272
    01:32:44.267                             : :01:32:44.267
    01:42:06.287                             : :01:42:06.245
    01:48:21.412                             : :01:48:21.078

  • Peso: 3.46 GiB

Sinopsis

Año 1989, el muro de Berlín está a punto de caer. Un agente del MI6 encubierto aparece muerto y la espía Lorraine Broughton (Charlize Theron) debe encontrar por todos los medios una lista que el agente estaba intentando hacer llegar a Occidente, y en la que figuran los nombres de todos los agentes encubiertos que trabajan en Berlín oriental. Lorraine no se detendrá ante nada para conseguir dar con esa lista, enfrentándose a varios asesinos y sumergiéndose en un mundo en el que nadie parece ser quien dice ser.

Ficha técnica

Video trailer de la película

Enlaces de descarga

Rip de Bluray

Descargar Atómica (2017) 1080p Latino




Aportes de DPeliculasHDmega la pass es:dpeliculashdmega.org Aportes de CinemaniaHD la pass es:cinemaniahdd.com
Guardado en : Acción , Misterio , Suspense

Películas relacionadas

  • Occupation (2018) WEBDL 1080p Subtitulada

    2018
    Occupation (2018) WEBDL 1080p Subtitulada

    0.0 1h 59m 2018

    El film se centra en un grupo de civiles que ven como su pequeño pueblo en Australia es aniquilado por...

    Director: Luke Sparke

    Género: Acción

    Actores: Temuera Morrison

  • El Justiciero (2014) Full 1080p Latino

    2014
    El Justiciero (2014) Full 1080p Latino

    4.0 2 h 12 min 2014

    Robert McCall, un antiguo agente de la CIA que lleva ahora una vida tranquila, abandona su retiro para...

    Director: Deirdre Horgan

    Género: Acción

    Actores: Yan Dron

  • James Bond Live and Let Die (1973) Full 1080p Latino

    1973
    James Bond Live and Let Die (1973) Full 1080p Latino

    0.0 2 h 1 min 1973

    En tan sólo veinticuatro horas, tres agentes del servicio secreto británico que investigaban una red...

    Director: Guy Hamilton

    Género: Acción

    Actores: Yaphet Kotto

Comentarios 3
  • seba - 03 noviembre, 2017

    como siempre los mejores =)
    amigos una sugerencia a las caratulas gris ponganle los audios de las negras asi pesan menas por favor =) los audios intactos de las grises pesan demasiado

  • hugo - 03 noviembre, 2017

    hola esta pelicula solo traera el audio latino del dvd y no del bluray si es que tiene?

    • Dpelis2 pelis2 - 03 noviembre, 2017

      Hola cuando se publique la Versión plateada traerá el audio del BluRay. Saludos