Atlantis el imperio perdido (2001) Full 1080p Latino

974 vistas
1 estrella2 estrellas3 estrellas4 estrellas5 estrellas (3 votos, promedio: 5,00 de 5)
Cargando…

Información de Atlantis el imperio perdido (2001) Full 1080p Latino

Datos de la película

  • Calidad: Full 1080p
  • Audio: Español Latino AC3 5.1 BLURAY - Ingles DTS 5.1 BLURAY
  • Subtitulos: Español Latino PGS - Ingles PGS
  • Resolución: 1920x1080p
  • Formato: MKV
  • Codec: H.264
  • Encoder: Dracarys
  • Mediainfo: Clic para Mostrar Datos Ver
  • Format                                   : Matroska
    Format version                           : Version 4 / Version 2
    File size                                : 3.70 GiB
    Duration                                 : 1 h 35 min
    Overall bit rate                         : 5 527 kb/s
    Movie name                               : CinemaniaHDD.net
    Encoded date                             : UTC 2018-09-23 02:01:47 / UTC 2018-09-19T06:15:33Z
    Writing application                      : mkvmerge v15.0.0 ('Duel with the Devil') 64-bit
    Writing library                          : libebml v1.3.5 + libmatroska v1.4.5 / Lavf57.7.2

    Video
    ID                                       : 1
    Format                                   : AVC
    Format/Info                              : Advanced Video Codec
    Format profile                           : High@L4.1
    Format settings                          : CABAC / 4 Ref Frames
    Format settings, CABAC                   : Yes
    Format settings, RefFrames               : 4 frames
    Codec ID                                 : V_MPEG4/ISO/AVC
    Duration                                 : 1 h 35 min
    Bit rate                                 : 3 268 kb/s
    Width                                    : 1 920 pixels
    Height                                   : 1 080 pixels
    Display aspect ratio                     : 16:9
    Frame rate mode                          : Constant
    Frame rate                               : 23.976 (24000/1001) FPS
    Color space                              : YUV
    Chroma subsampling                       : 4:2:0
    Bit depth                                : 8 bits
    Scan type                                : Progressive
    Bits/(Pixel*Frame)                       : 0.066
    Stream size                              : 2.19 GiB (59%)
    Writing library                          : x264 core 148 r2708 86b7198
    Encoding settings                        : cabac=1 / ref=4 / deblock=1:0:0 / analyse=0x3:0x133 / me=esa / subme=10 / psy=1 / psy_rd=1.00:0.00 / mixed_ref=1 / me_range=24 / chroma_me=1 / trellis=2 / 8x8dct=1 / cqm=0 / deadzone=21,11 / fast_pskip=1 / chroma_qp_offset=-2 / threads=34 / lookahead_threads=5 / sliced_threads=0 / nr=0 / decimate=1 / interlaced=0 / bluray_compat=0 / constrained_intra=0 / bframes=8 / b_pyramid=2 / b_adapt=2 / b_bias=0 / direct=3 / weightb=1 / open_gop=0 / weightp=2 / keyint=240 / keyint_min=24 / scenecut=40 / intra_refresh=0 / rc_lookahead=60 / rc=crf / mbtree=1 / crf=20.0 / qcomp=0.60 / qpmin=0 / qpmax=69 / qpstep=4 / vbv_maxrate=62500 / vbv_bufsize=78125 / crf_max=0.0 / nal_hrd=none / filler=0 / ip_ratio=1.40 / aq=1:1.00
    Language                                 : English
    Default                                  : Yes
    Forced                                   : No
    Color range                              : Limited
    Color primaries                          : BT.709
    Transfer characteristics                 : BT.709
    Matrix coefficients                      : BT.709
    Statistics Tags Issue                    : mkvmerge v15.0.0 ('Duel with the Devil') 64-bit 2018-09-23 02:01:47 / mkvmerge v15.0.0 ('Duel with the Devil') 64-bit 2018-09-23 02:01:47 / UTC 2018-09-19T06:15:33Z
    FromStats_BitRate                        : 3349182
    FromStats_Duration                       : 01:35:43.571000000
    FromStats_FrameCount                     : 137708
    FromStats_StreamSize                     : 2404533713

    Audio #1
    ID                                       : 2
    Format                                   : AC-3
    Format/Info                              : Audio Coding 3
    Format settings, Endianness              : Big
    Codec ID                                 : A_AC3
    Duration                                 : 1 h 35 min
    Bit rate mode                            : Constant
    Bit rate                                 : 640 kb/s
    Channel(s)                               : 6 channels
    Channel positions                        : Front: L C R, Side: L R, LFE
    Sampling rate                            : 48.0 kHz
    Frame rate                               : 31.250 FPS (1536 SPF)
    Bit depth                                : 16 bits
    Compression mode                         : Lossy
    Stream size                              : 438 MiB (12%)
    Language                                 : Spanish
    Service kind                             : Complete Main
    Default                                  : Yes
    Forced                                   : No
    Statistics Tags Issue                    : mkvmerge v15.0.0 ('Duel with the Devil') 64-bit 2018-09-23 02:01:47 / mkvmerge v15.0.0 ('Duel with the Devil') 64-bit 2018-09-23 02:01:47 / UTC 2018-09-19T06:15:33Z
    FromStats_BitRate                        : 640000
    FromStats_Duration                       : 01:35:43.584000000
    FromStats_FrameCount                     : 179487
    FromStats_StreamSize                     : 459486720

    Audio #2
    ID                                       : 3
    Format                                   : DTS
    Format/Info                              : Digital Theater Systems
    Mode                                     : 16
    Format settings, Endianness              : Big
    Codec ID                                 : A_DTS
    Duration                                 : 1 h 35 min
    Bit rate mode                            : Constant
    Bit rate                                 : 1 509 kb/s
    Channel(s)                               : 6 channels
    Channel positions                        : Front: L C R, Side: L R, LFE
    Sampling rate                            : 48.0 kHz
    Frame rate                               : 93.750 FPS (512 SPF)
    Bit depth                                : 24 bits
    Compression mode                         : Lossy
    Stream size                              : 1.01 GiB (27%)
    Language                                 : English
    Default                                  : No
    Forced                                   : No
    Statistics Tags Issue                    : mkvmerge v15.0.0 ('Duel with the Devil') 64-bit 2018-09-23 02:01:47 / mkvmerge v15.0.0 ('Duel with the Devil') 64-bit 2018-09-23 02:01:47 / UTC 2018-09-19T06:15:33Z
    FromStats_BitRate                        : 1508999
    FromStats_Duration                       : 01:35:43.563000000
    FromStats_FrameCount                     : 538459
    FromStats_StreamSize                     : 1083379508

    Text #1
    ID                                       : 4
    Format                                   : PGS
    Muxing mode                              : zlib
    Codec ID                                 : S_HDMV/PGS
    Codec ID/Info                            : Picture based subtitle format used on BDs/HD-DVDs
    Language                                 : English
    Default                                  : No
    Forced                                   : No
    Statistics Tags Issue                    : mkvmerge v15.0.0 ('Duel with the Devil') 64-bit 2018-09-23 02:01:47 / mkvmerge v15.0.0 ('Duel with the Devil') 64-bit 2018-09-23 02:01:47 / UTC 2018-09-19T06:15:33Z
    FromStats_BitRate                        : 46353
    FromStats_Duration                       : 01:32:41.056000000
    FromStats_FrameCount                     : 3106
    FromStats_StreamSize                     : 32222122

    Text #2
    ID                                       : 5
    Format                                   : PGS
    Muxing mode                              : zlib
    Codec ID                                 : S_HDMV/PGS
    Codec ID/Info                            : Picture based subtitle format used on BDs/HD-DVDs
    Language                                 : Spanish
    Default                                  : No
    Forced                                   : No
    Statistics Tags Issue                    : mkvmerge v15.0.0 ('Duel with the Devil') 64-bit 2018-09-23 02:01:47 / mkvmerge v15.0.0 ('Duel with the Devil') 64-bit 2018-09-23 02:01:47 / UTC 2018-09-19T06:15:33Z
    FromStats_BitRate                        : 40041
    FromStats_Duration                       : 01:27:36.835000000
    FromStats_FrameCount                     : 2695
    FromStats_StreamSize                     : 26311678

    Menu
    00:00:00.000                             : :Chapter 1
    00:02:30.817                             : :Chapter 2
    00:07:55.100                             : :Chapter 3
    00:13:42.530                             : :Chapter 4
    00:18:47.126                             : :Chapter 5
    00:26:25.125                             : :Chapter 6
    00:31:32.808                             : :Chapter 7
    00:36:16.716                             : :Chapter 8
    00:40:53.284                             : :Chapter 9
    00:46:56.230                             : :Chapter 10
    00:53:53.355                             : :Chapter 11
    00:59:41.119                             : :Chapter 12
    01:06:22.228                             : :Chapter 13
    01:09:40.176                             : :Chapter 14
    01:13:09.343                             : :Chapter 15
    01:19:43.779                             : :Chapter 16
    01:25:10.772                             : :Chapter 17
    01:28:02.569                             : :Chapter 18
    01:29:27.028                             : :Chapter 19

  • Peso: 3.70 GiB

Sinopsis

Un joven aventurero llamado Milo encuentra un antiguo diario que contiene pistas de cómo llegar a Atlantis, el mítico reino hundido. Junto a otros intrépidos personajes Milo decide embarcarse en el Ulises, un impresionante submarino, en una arriesgada expedición al fondo del mar.

Ficha técnica

Video trailer de la película

Enlaces de descarga

Rip de Bluray

Descargar Atlantis el imperio perdido (2001) Full 1080p Latino




Aportes de DPeliculasHDmega la pass es:dpeliculashdmega.org Aportes de CinemaniaHD la pass es:cinemaniahdd.com

Películas relacionadas

Comentarios 0