Arsenal (2017) 1080p Latino

1.030 vistas
1 estrella2 estrellas3 estrellas4 estrellas5 estrellas (Ninguna valoración todavía)
Cargando…

Información de Arsenal (2017) 1080p Latino

Datos de la película

  • Calidad: 1080p
  • Audio: Español Latino AC3 2.0 Capturado - Ingles AC3 5.1 BLURAY
  • Subtitulos: Español Latino SRT
  • Resolución: 1920X804p
  • Formato: MKV
  • Codec: H.264
  • Encoder: Dracarys
  • Mediainfo: Clic para Mostrar Datos Ver
  • Format                                   : Matroska
    Format version                           : Version 4 / Version 2
    File size                                : 2.53 GiB
    Duration                                 :1 h 32 min
    Overall bit rate                         : 3 928 kb/s
    Movie name                               : CinemaniaHDD.com
    Encoded date                             : UTC 2018-01-07 01:46:51 / UTC 2018-01-07T01:09:32Z
    Writing application                      : mkvmerge v15.0.0 ('Duel with the Devil') 64-bit
    Writing library                          : libebml v1.3.5 + libmatroska v1.4.5 / Lavf57.7.2

    Video
    ID                                       : 1
    Format                                   : AVC
    Format/Info                              : Advanced Video Codec
    Format profile                           : High@L4.1
    Format settings                          : CABAC / 4 Ref Frames
    Format settings, CABAC                   : Yes
    Format settings, RefFrames               : 4 frames
    Codec ID                                 : V_MPEG4/ISO/AVC
    Duration                                 : 1 h 32 min
    Bit rate                                 : 3 274 kb/s
    Nominal bit rate                         : 3 500 kb/s
    Width                                    : 1 920 pixels
    Height                                   : 804 pixels
    Display aspect ratio                     : 2.40:1
    Frame rate mode                          : Constant
    Frame rate                               : 23.976 (24000/1001) FPS
    Color space                              : YUV
    Chroma subsampling                       : 4:2:0
    Bit depth                                : 8 bits
    Scan type                                : Progressive
    Bits/(Pixel*Frame)                       : 0.088
    Stream size                              : 2.11 GiB (83%)
    Title                                    : Arsenal (2017) 1080p Latino
    Writing library                          : x264 core 148 r2708 86b7198
    Encoding settings                        : cabac=1 / ref=3 / deblock=1:0:0 / analyse=0x3:0x113 / me=hex / subme=7 / psy=1 / psy_rd=1.00:0.00 / mixed_ref=1 / me_range=16 / chroma_me=1 / trellis=1 / 8x8dct=1 / cqm=0 / deadzone=21,11 / fast_pskip=1 / chroma_qp_offset=-2 / threads=25 / lookahead_threads=4 / sliced_threads=0 / nr=0 / decimate=1 / interlaced=0 / bluray_compat=0 / constrained_intra=0 / bframes=3 / b_pyramid=2 / b_adapt=1 / b_bias=0 / direct=1 / weightb=1 / open_gop=0 / weightp=2 / keyint=240 / keyint_min=24 / scenecut=40 / intra_refresh=0 / rc_lookahead=40 / rc=abr / mbtree=1 / bitrate=3500 / ratetol=1.0 / qcomp=0.60 / qpmin=0 / qpmax=69 / qpstep=4 / vbv_maxrate=62500 / vbv_bufsize=78125 / nal_hrd=none / filler=0 / ip_ratio=1.40 / aq=1:1.00
    Language                                 : English
    Default                                  : Yes
    Forced                                   : No
    Color range                              : Limited
    Color primaries                          : BT.709
    Transfer characteristics                 : BT.709
    Matrix coefficients                      : BT.709
    Statistics Tags Issue                    : mkvmerge v15.0.0 ('Duel with the Devil') 64-bit 2018-01-07 01:46:51 / mkvmerge v15.0.0 ('Duel with the Devil') 64-bit 2018-01-07 01:46:51 / UTC 2018-01-07T01:09:32Z
    FromStats_BitRate                        : 3350787
    FromStats_Duration                       : 01:32:15.572000000
    FromStats_FrameCount                     : 132721
    FromStats_StreamSize                     : 2318565960

    Audio #1
    ID                                       : 2
    Format                                   : AC-3
    Format/Info                              : Audio Coding 3
    Format settings, Endianness              : Big
    Codec ID                                 : A_AC3
    Duration                                 : 1 h 32 min
    Bit rate mode                            : Constant
    Bit rate                                 : 192 kb/s
    Channel(s)                               : 2 channels
    Channel positions                        : Front: L R
    Sampling rate                            : 48.0 kHz
    Frame rate                               : 31.250 FPS (1536 SPF)
    Bit depth                                : 16 bits
    Compression mode                         : Lossy
    Delay relative to video                  : 195 ms
    Stream size                              : 127 MiB (5%)
    Language                                 : Spanish
    Service kind                             : Complete Main
    Default                                  : Yes
    Forced                                   : No
    Statistics Tags Issue                    : mkvmerge v15.0.0 ('Duel with the Devil') 64-bit 2018-01-07 01:46:51 / mkvmerge v15.0.0 ('Duel with the Devil') 64-bit 2018-01-07 01:46:51 / UTC 2018-01-07T01:09:32Z
    FromStats_BitRate                        : 192000
    FromStats_Duration                       : 01:31:59.008000000
    FromStats_FrameCount                     : 172469
    FromStats_StreamSize                     : 132456192

    Audio #2
    ID                                       : 3
    Format                                   : AC-3
    Format/Info                              : Audio Coding 3
    Format settings, Endianness              : Big
    Codec ID                                 : A_AC3
    Duration                                 : 1 h 32 min
    Bit rate mode                            : Constant
    Bit rate                                 : 384 kb/s
    Channel(s)                               : 6 channels
    Channel positions                        : Front: L C R, Side: L R, LFE
    Sampling rate                            : 48.0 kHz
    Frame rate                               : 31.250 FPS (1536 SPF)
    Bit depth                                : 16 bits
    Compression mode                         : Lossy
    Delay relative to video                  : -5 ms
    Stream size                              : 253 MiB (10%)
    Language                                 : English
    Service kind                             : Complete Main
    Default                                  : No
    Forced                                   : No
    Statistics Tags Issue                    : mkvmerge v15.0.0 ('Duel with the Devil') 64-bit 2018-01-07 01:46:51 / mkvmerge v15.0.0 ('Duel with the Devil') 64-bit 2018-01-07 01:46:51 / UTC 2018-01-07T01:09:32Z
    FromStats_BitRate                        : 384000
    FromStats_Duration                       : 01:32:15.552000000
    FromStats_FrameCount                     : 172986
    FromStats_StreamSize                     : 265706496

    Text
    ID                                       : 4
    Format                                   : UTF-8
    Codec ID                                 : S_TEXT/UTF8
    Codec ID/Info                            : UTF-8 Plain Text
    Language                                 : Spanish
    Default                                  : Yes
    Forced                                   : No
    Statistics Tags Issue                    : mkvmerge v15.0.0 ('Duel with the Devil') 64-bit 2018-01-07 01:46:51 / mkvmerge v15.0.0 ('Duel with the Devil') 64-bit 2018-01-07 01:46:51 / UTC 2018-01-07T01:09:32Z
    FromStats_BitRate                        : 52
    FromStats_Duration                       : 01:27:01.634000000
    FromStats_FrameCount                     : 1007
    FromStats_StreamSize                     : 34151

    Menu
    00:00:00.000                             : :Chapter 1
    00:06:10.245                             : :Chapter 2
    00:11:19.512                             : :Chapter 3
    00:18:02.039                             : :Chapter 4
    00:24:29.218                             : :Chapter 5
    00:30:56.355                             : :Chapter 6
    00:37:17.235                             : :Chapter 7
    00:42:08.276                             : :Chapter 8
    00:48:51.720                             : :Chapter 9
    00:54:16.462                             : :Chapter 10
    00:59:14.718                             : :Chapter 11
    01:04:20.732                             : :Chapter 12
    01:09:47.892                             : :Chapter 13
    01:15:18.305                             : :Chapter 14
    01:20:12.641                             : :Chapter 15
    01:24:13.799                             : :Chapter 16

     

  • Peso: 2.53 GiB

Sinopsis

El hermano de un importante hombre de negocios ha sido secuestrado. Pocos detalles se conocen de su desaparición, aunque se sospecha de mafioso de Philadelphia. Sin embargo, pronto empiezan a desencadenarse los rumores de que ha sido el propio joven el que ha orquestado todo el rapto. Entonces será cuando el empresario deba tomar cartas en el asunto.

Ficha técnica

Video trailer de la película

Enlaces de descarga

Rip de Bluray

Descargar Arsenal (2017) 1080p Latino




Aportes de DPeliculasHDmega la pass es:dpeliculashdmega.org Aportes de CinemaniaHD la pass es:cinemaniahdd.com
Guardado en : Acción , Crimen , Suspense

Películas relacionadas

  • Occupation (2018) WEBDL 1080p Subtitulada

    2018
    Occupation (2018) WEBDL 1080p Subtitulada

    0.0 1h 59m 2018

    El film se centra en un grupo de civiles que ven como su pequeño pueblo en Australia es aniquilado por...

    Director: Luke Sparke

    Género: Acción

    Actores: Temuera Morrison

  • El Justiciero (2014) Full 1080p Latino

    2014
    El Justiciero (2014) Full 1080p Latino

    4.3 2 h 12 min 2014

    Robert McCall, un antiguo agente de la CIA que lleva ahora una vida tranquila, abandona su retiro para...

    Director: Deirdre Horgan

    Género: Acción

    Actores: Yan Dron

  • James Bond Live and Let Die (1973) Full 1080p Latino

    1973
    James Bond Live and Let Die (1973) Full 1080p Latino

    0.0 2 h 1 min 1973

    En tan sólo veinticuatro horas, tres agentes del servicio secreto británico que investigaban una red...

    Director: Guy Hamilton

    Género: Acción

    Actores: Yaphet Kotto

Comentarios 0