Apocalypto (2006) Full 1080p Subtitulada

2.075 vistas
1 estrella2 estrellas3 estrellas4 estrellas5 estrellas (4 votos, promedio: 3,00 de 5)
Cargando…

Información de Apocalypto (2006) Full 1080p Subtitulada

Datos de la película

  • Calidad: Full 1080p
  • Audio: Se especifica abajo de la Sinopsis
  • Subtitulos: Español Latino SRT
  • Resolución: 1920x1080p
  • Formato: MKV
  • Codec: H.264
  • Encoder: Dracarys
  • Mediainfo: Clic para Mostrar Datos Ver
  • Format                                   : Matroska
    Format version                           : Version 4 / Version 2
    File size                                : 11.8 GiB
    Duration                                 : 2 h 18 min
    Overall bit rate                         : 12.2 Mb/s
    Movie name                               : CinemaniaHDD.com
    Encoded date                             : UTC 2018-03-29 04:43:36 / UTC 2018-03-28T18:31:35Z
    Writing application                      : mkvmerge v15.0.0 ('Duel with the Devil') 64-bit
    Writing library                          : libebml v1.3.5 + libmatroska v1.4.5 / Lavf57.7.2

    Video
    ID                                       : 1
    Format                                   : AVC
    Format/Info                              : Advanced Video Codec
    Format profile                           : High@L4.1
    Format settings                          : CABAC / 4 Ref Frames
    Format settings, CABAC                   : Yes
    Format settings, RefFrames               : 4 frames
    Codec ID                                 : V_MPEG4/ISO/AVC
    Duration                                 : 2 h 18 min
    Bit rate                                 : 11.3 Mb/s
    Width                                    : 1 920 pixels
    Height                                   : 1 080 pixels
    Display aspect ratio                     : 16:9
    Frame rate mode                          : Constant
    Frame rate                               : 23.976 (24000/1001) FPS
    Color space                              : YUV
    Chroma subsampling                       : 4:2:0
    Bit depth                                : 8 bits
    Scan type                                : Progressive
    Bits/(Pixel*Frame)                       : 0.228
    Stream size                              : 11.0 GiB (93%)
    Title                                    : Apocalypto (2006) Full 1080p Subtitulada
    Writing library                          : x264 core 148 r2708 86b7198
    Encoding settings                        : cabac=1 / ref=4 / deblock=1:0:0 / analyse=0x3:0x133 / me=esa / subme=9 / psy=1 / psy_rd=1.00:0.00 / mixed_ref=1 / me_range=16 / chroma_me=1 / trellis=2 / 8x8dct=1 / cqm=0 / deadzone=21,11 / fast_pskip=1 / chroma_qp_offset=-2 / threads=34 / lookahead_threads=2 / sliced_threads=0 / nr=0 / decimate=1 / interlaced=0 / bluray_compat=0 / constrained_intra=0 / bframes=3 / b_pyramid=2 / b_adapt=2 / b_bias=0 / direct=3 / weightb=1 / open_gop=0 / weightp=2 / keyint=240 / keyint_min=24 / scenecut=40 / intra_refresh=0 / rc_lookahead=60 / rc=crf / mbtree=1 / crf=20.0 / qcomp=0.60 / qpmin=0 / qpmax=69 / qpstep=4 / vbv_maxrate=62500 / vbv_bufsize=78125 / crf_max=0.0 / nal_hrd=none / filler=0 / ip_ratio=1.40 / aq=1:1.00
    Default                                  : Yes
    Forced                                   : No
    Color range                              : Limited
    Color primaries                          : BT.709
    Transfer characteristics                 : BT.709
    Matrix coefficients                      : BT.709
    Statistics Tags Issue                    : mkvmerge v15.0.0 ('Duel with the Devil') 64-bit 2018-03-29 04:43:36 / mkvmerge v15.0.0 ('Duel with the Devil') 64-bit 2018-03-29 04:43:36 / UTC 2018-03-28T18:31:35Z
    FromStats_BitRate                        : 11577665
    FromStats_Duration                       : 02:18:21.335000000
    FromStats_FrameCount                     : 199033
    FromStats_StreamSize                     : 12013760393

    Audio
    ID                                       : 2
    Format                                   : AC-3
    Format/Info                              : Audio Coding 3
    Format settings, Endianness              : Big
    Codec ID                                 : A_AC3
    Duration                                 : 2 h 18 min
    Bit rate mode                            : Constant
    Bit rate                                 : 640 kb/s
    Channel(s)                               : 6 channels
    Channel positions                        : Front: L C R, Side: L R, LFE
    Sampling rate                            : 48.0 kHz
    Frame rate                               : 31.250 FPS (1536 SPF)
    Bit depth                                : 16 bits
    Compression mode                         : Lossy
    Delay relative to video                  : -5 ms
    Stream size                              : 633 MiB (5%)
    Title                                    : Audio Maya AC3-5.1
    Service kind                             : Complete Main
    Default                                  : Yes
    Forced                                   : No
    Statistics Tags Issue                    : mkvmerge v15.0.0 ('Duel with the Devil') 64-bit 2018-03-29 04:43:36 / mkvmerge v15.0.0 ('Duel with the Devil') 64-bit 2018-03-29 04:43:36 / UTC 2018-03-28T18:31:35Z
    FromStats_BitRate                        : 640000
    FromStats_Duration                       : 02:18:21.312000000
    FromStats_FrameCount                     : 259416
    FromStats_StreamSize                     : 664104960

    Text #1
    ID                                       : 3
    Format                                   : UTF-8
    Codec ID                                 : S_TEXT/UTF8
    Codec ID/Info                            : UTF-8 Plain Text
    Title                                    : Latino-SRT
    Language                                 : Spanish
    Default                                  : Yes
    Forced                                   : Yes
    Statistics Tags Issue                    : mkvmerge v15.0.0 ('Duel with the Devil') 64-bit 2018-03-29 04:43:36 / mkvmerge v15.0.0 ('Duel with the Devil') 64-bit 2018-03-29 04:43:36 / UTC 2018-03-28T18:31:35Z
    FromStats_BitRate                        : 11
    FromStats_Duration                       : 02:08:34.140000000
    FromStats_FrameCount                     : 447
    FromStats_StreamSize                     : 10862

    Text #2
    ID                                       : 4
    Format                                   : PGS
    Muxing mode                              : zlib
    Codec ID                                 : S_HDMV/PGS
    Codec ID/Info                            : Picture based subtitle format used on BDs/HD-DVDs
    Title                                    : Ingles-PGS
    Language                                 : English
    Default                                  : No
    Forced                                   : No
    Statistics Tags Issue                    : mkvmerge v15.0.0 ('Duel with the Devil') 64-bit 2018-03-29 04:43:36 / mkvmerge v15.0.0 ('Duel with the Devil') 64-bit 2018-03-29 04:43:36 / UTC 2018-03-28T18:31:35Z
    FromStats_BitRate                        : 4650
    FromStats_Duration                       : 02:08:40.755000000
    FromStats_FrameCount                     : 1002
    FromStats_StreamSize                     : 4488183

    Text #3
    ID                                       : 5
    Format                                   : PGS
    Muxing mode                              : zlib
    Codec ID                                 : S_HDMV/PGS
    Codec ID/Info                            : Picture based subtitle format used on BDs/HD-DVDs
    Title                                    : Latino-PGS
    Language                                 : Spanish
    Default                                  : No
    Forced                                   : No
    Statistics Tags Issue                    : mkvmerge v15.0.0 ('Duel with the Devil') 64-bit 2018-03-29 04:43:36 / mkvmerge v15.0.0 ('Duel with the Devil') 64-bit 2018-03-29 04:43:36 / UTC 2018-03-28T18:31:35Z
    FromStats_BitRate                        : 10638
    FromStats_Duration                       : 02:08:34.131000000
    FromStats_FrameCount                     : 894
    FromStats_StreamSize                     : 10258569

    Menu
    00:00:00.000                             : :Chapter 1
    00:08:19.332                             : :Chapter 2
    00:13:03.741                             : :Chapter 3
    00:19:17.281                             : :Chapter 4
    00:23:09.722                             : :Chapter 5
    00:32:34.244                             : :Chapter 6
    00:37:45.180                             : :Chapter 7
    00:48:28.656                             : :Chapter 8
    00:56:39.104                             : :Chapter 9
    01:00:53.775                             : :Chapter 10
    01:09:15.109                             : :Chapter 11
    01:18:12.938                             : :Chapter 12
    01:23:15.782                             : :Chapter 13
    01:32:12.277                             : :Chapter 14
    01:43:07.723                             : :Chapter 15
    01:50:14.983                             : :Chapter 16
    01:57:45.684                             : :Chapter 17
    02:08:06.470                             : :Chapter 18
    02:09:49.031                             : :Chapter 19

  • Peso: 11.8 GiB

Sinopsis

Historia ambientada en la época del imperio maya. Cuando la idílica existencia de los mayas es brutalmente interrumpida por el ataque de una fuerza invasora, un hombre emprende un arriesgado viaje a un mundo regido por el miedo y la opresión en el que le espera un incierto final. Debido a un giro del destino y espoleado por el amor a su esposa y a su familia, emprenderá el regreso a su hogar en un desesperado esfuerzo por preservar su forma de vida…

 

Audio Maya AC3 5.1 Bluray

Ficha técnica

Video trailer de la película

Enlaces de descarga

Rip de Bluray

Descargar Apocalypto (2006) Full 1080p Subtitulada




Aportes de DPeliculasHDmega la pass es:dpeliculashdmega.org Aportes de CinemaniaHD la pass es:cinemaniahdd.com

Películas relacionadas

  • Tully (2018) 1080p Latino

    2018
    Tully (2018) 1080p Latino

    0.0 1 h 35 min 2018

    La historia de una mujer con tres hijos que, incapaz de lidiar con su bebé recién nacido, contrata...

    Director: Jason Reitman

    Género: Comedia

    Actores: Stormy Ent

  • Si solo pudiera imaginar (2018) Full 1080p Latino

    2018
    Si solo pudiera imaginar (2018) Full 1080p Latino

    5.0 1 h 50 min 2018

    La historia real de la aclamada canción "I Can Only Imagine", la canción cristiana contemporánea más...

    Director: Jon Erwin

    Género: Drama

    Actores: Trace Adkins

  • El Justiciero (2014) Full 1080p Latino

    2014
    El Justiciero (2014) Full 1080p Latino

    4.0 2 h 12 min 2014

    Robert McCall, un antiguo agente de la CIA que lleva ahora una vida tranquila, abandona su retiro para...

    Director: Deirdre Horgan

    Género: Acción

    Actores: Yan Dron

Comentarios 0