Ant-Man y la Avispa (2018) Full 1080p [Placebo]

5.458 vistas
1 estrella2 estrellas3 estrellas4 estrellas5 estrellas (18 votos, promedio: 4,17 de 5)
Cargando…

Información de Ant-Man y la Avispa (2018) Full 1080p [Placebo]

Datos de la película

  • Calidad: Full 1080p
  • Audio: Español Latino AC3 5.1 BLURAY - Ingles DTS 5.1 BLURAY
  • Subtitulos: Español Latino PGS - Ingles PGS
  • Resolución: 1920x1080p
  • Formato: MKV
  • Codec: H.264
  • Encoder: Dracarys
  • Mediainfo: Clic para Mostrar Datos Ver
  • Format                                   : Matroska
    Format version                           : Version 4 / Version 2
    File size                                : 4.21 GiB
    Duration                                 : 1 h 58 min
    Overall bit rate                         : 5 102 kb/s
    Movie name                               : CinemaniaHDD.net
    Encoded date                             : UTC 2018-10-07 19:51:20 / UTC 2018-10-07T03:52:50Z
    Writing application                      : mkvmerge v15.0.0 ('Duel with the Devil') 64-bit
    Writing library                          : libebml v1.3.5 + libmatroska v1.4.5 / Lavf57.7.2

    Video
    ID                                       : 1
    Format                                   : AVC
    Format/Info                              : Advanced Video Codec
    Format profile                           : High@L4.1
    Format settings                          : CABAC / 4 Ref Frames
    Format settings, CABAC                   : Yes
    Format settings, RefFrames               : 4 frames
    Codec ID                                 : V_MPEG4/ISO/AVC
    Duration                                 : 1 h 58 min
    Bit rate                                 : 2 852 kb/s
    Width                                    : 1 920 pixels
    Height                                   : 1 080 pixels
    Display aspect ratio                     : 16:9
    Frame rate mode                          : Constant
    Frame rate                               : 23.976 (24000/1001) FPS
    Color space                              : YUV
    Chroma subsampling                       : 4:2:0
    Bit depth                                : 8 bits
    Scan type                                : Progressive
    Bits/(Pixel*Frame)                       : 0.057
    Stream size                              : 2.35 GiB (56%)
    Writing library                          : x264 core 148 r2708 86b7198
    Encoding settings                        : cabac=1 / ref=4 / deblock=1:0:0 / analyse=0x3:0x133 / me=tesa / subme=11 / psy=1 / psy_rd=1.00:0.00 / mixed_ref=1 / me_range=24 / chroma_me=1 / trellis=2 / 8x8dct=1 / cqm=0 / deadzone=21,11 / fast_pskip=0 / chroma_qp_offset=-2 / threads=34 / lookahead_threads=8 / sliced_threads=0 / nr=0 / decimate=1 / interlaced=0 / bluray_compat=0 / constrained_intra=0 / bframes=16 / b_pyramid=2 / b_adapt=2 / b_bias=0 / direct=3 / weightb=1 / open_gop=0 / weightp=2 / keyint=240 / keyint_min=24 / scenecut=40 / intra_refresh=0 / rc_lookahead=60 / rc=crf / mbtree=1 / crf=20.0 / qcomp=0.60 / qpmin=0 / qpmax=69 / qpstep=4 / vbv_maxrate=62500 / vbv_bufsize=78125 / crf_max=0.0 / nal_hrd=none / filler=0 / ip_ratio=1.40 / aq=1:1.00
    Language                                 : English
    Default                                  : Yes
    Forced                                   : No
    Color range                              : Limited
    Color primaries                          : BT.709
    Transfer characteristics                 : BT.709
    Matrix coefficients                      : BT.709
    Statistics Tags Issue                    : mkvmerge v15.0.0 ('Duel with the Devil') 64-bit 2018-10-07 19:51:20 / mkvmerge v15.0.0 ('Duel with the Devil') 64-bit 2018-10-07 19:51:20 / UTC 2018-10-07T03:52:50Z
    FromStats_BitRate                        : 2899388
    FromStats_Duration                       : 01:58:06.496000000
    FromStats_FrameCount                     : 169906
    FromStats_StreamSize                     : 2568313307

    Audio #1
    ID                                       : 2
    Format                                   : AC-3
    Format/Info                              : Audio Coding 3
    Format settings, Endianness              : Big
    Codec ID                                 : A_AC3
    Duration                                 : 1 h 58 min
    Bit rate mode                            : Constant
    Bit rate                                 : 640 kb/s
    Channel(s)                               : 6 channels
    Channel positions                        : Front: L C R, Side: L R, LFE
    Sampling rate                            : 48.0 kHz
    Frame rate                               : 31.250 FPS (1536 SPF)
    Bit depth                                : 16 bits
    Compression mode                         : Lossy
    Stream size                              : 541 MiB (13%)
    Language                                 : Spanish
    Service kind                             : Complete Main
    Default                                  : Yes
    Forced                                   : No
    Statistics Tags Issue                    : mkvmerge v15.0.0 ('Duel with the Devil') 64-bit 2018-10-07 19:51:20 / mkvmerge v15.0.0 ('Duel with the Devil') 64-bit 2018-10-07 19:51:20 / UTC 2018-10-07T03:52:50Z
    FromStats_BitRate                        : 640000
    FromStats_Duration                       : 01:58:06.560000000
    FromStats_FrameCount                     : 221455
    FromStats_StreamSize                     : 566924800

    Audio #2
    ID                                       : 3
    Format                                   : DTS
    Format/Info                              : Digital Theater Systems
    Mode                                     : 16
    Format settings, Endianness              : Big
    Codec ID                                 : A_DTS
    Duration                                 : 1 h 58 min
    Bit rate mode                            : Constant
    Bit rate                                 : 1 509 kb/s
    Channel(s)                               : 6 channels
    Channel positions                        : Front: L C R, Side: L R, LFE
    Sampling rate                            : 48.0 kHz
    Frame rate                               : 93.750 FPS (512 SPF)
    Bit depth                                : 24 bits
    Compression mode                         : Lossy
    Stream size                              : 1.24 GiB (30%)
    Language                                 : English
    Default                                  : No
    Forced                                   : No
    Statistics Tags Issue                    : mkvmerge v15.0.0 ('Duel with the Devil') 64-bit 2018-10-07 19:51:20 / mkvmerge v15.0.0 ('Duel with the Devil') 64-bit 2018-10-07 19:51:20 / UTC 2018-10-07T03:52:50Z
    FromStats_BitRate                        : 1509000
    FromStats_Duration                       : 01:58:06.528000000
    FromStats_FrameCount                     : 664362
    FromStats_StreamSize                     : 1336696344

    Text #1
    ID                                       : 4
    Format                                   : PGS
    Muxing mode                              : zlib
    Codec ID                                 : S_HDMV/PGS
    Codec ID/Info                            : Picture based subtitle format used on BDs/HD-DVDs
    Language                                 : English
    Default                                  : No
    Forced                                   : No
    Statistics Tags Issue                    : mkvmerge v15.0.0 ('Duel with the Devil') 64-bit 2018-10-07 19:51:20 / mkvmerge v15.0.0 ('Duel with the Devil') 64-bit 2018-10-07 19:51:20 / UTC 2018-10-07T03:52:50Z
    FromStats_BitRate                        : 44663
    FromStats_Duration                       : 01:57:35.632000000
    FromStats_FrameCount                     : 4273
    FromStats_StreamSize                     : 39390857

    Text #2
    ID                                       : 5
    Format                                   : PGS
    Muxing mode                              : zlib
    Codec ID                                 : S_HDMV/PGS
    Codec ID/Info                            : Picture based subtitle format used on BDs/HD-DVDs
    Language                                 : Spanish
    Default                                  : No
    Forced                                   : No
    Statistics Tags Issue                    : mkvmerge v15.0.0 ('Duel with the Devil') 64-bit 2018-10-07 19:51:20 / mkvmerge v15.0.0 ('Duel with the Devil') 64-bit 2018-10-07 19:51:20 / UTC 2018-10-07T03:52:50Z
    FromStats_BitRate                        : 35966
    FromStats_Duration                       : 01:57:51.148000000
    FromStats_FrameCount                     : 3588
    FromStats_StreamSize                     : 31790827

    Text #3
    ID                                       : 6
    Format                                   : PGS
    Muxing mode                              : zlib
    Codec ID                                 : S_HDMV/PGS
    Codec ID/Info                            : Picture based subtitle format used on BDs/HD-DVDs
    Title                                    : Forzado
    Language                                 : Spanish
    Default                                  : Yes
    Forced                                   : Yes
    Statistics Tags Issue                    : mkvmerge v15.0.0 ('Duel with the Devil') 64-bit 2018-10-07 19:51:20 / mkvmerge v15.0.0 ('Duel with the Devil') 64-bit 2018-10-07 19:51:20 / UTC 2018-10-07T03:52:50Z
    FromStats_BitRate                        : 83473
    FromStats_Duration                       : 01:57:58.488000000
    FromStats_FrameCount                     : 4776
    FromStats_StreamSize                     : 73858101

    Menu
    00:00:00.000                             : :Chapter 1
    00:04:03.034                             : :Chapter 2
    00:10:16.407                             : :Chapter 3
    00:13:39.861                             : :Chapter 4
    00:21:25.451                             : :Chapter 5
    00:29:07.829                             : :Chapter 6
    00:36:09.084                             : :Chapter 7
    00:40:56.579                             : :Chapter 8
    00:50:17.431                             : :Chapter 9
    00:58:59.077                             : :Chapter 10
    01:04:56.434                             : :Chapter 11
    01:12:54.287                             : :Chapter 12
    01:18:32.124                             : :Chapter 13
    01:24:44.913                             : :Chapter 14
    01:29:47.340                             : :Chapter 15
    01:36:16.271                             : :Chapter 16
    01:43:35.334                             : :Chapter 17
    01:46:59.830                             : :Chapter 18

     

  • Peso: 4.21 GiB

Sinopsis

Ant-Man y la Avispa  Descargar Gratis Mientras Scott Lang se convierte en un súper héroe y en un padre, Hope van Dyne y el Dr. Hank Pym presentan una nueva misión urgente que encuentra a Ant-Man luchando junto a The Wasp para descubrir secretos de su pasado.

Ficha técnica

Video trailer de la película

Enlaces de descarga

Rip de Bluray

Descargar Ant-Man y la Avispa (2018) Full 1080p [Placebo]




Aportes de DPeliculasHDmega la pass es:dpeliculashdmega.org Aportes de CinemaniaHD la pass es:cinemaniahdd.com

Películas relacionadas

  • The Night Comes For Us (2018) NF 1080p Latino

    2018
    The Night Comes For Us (2018) NF 1080p Latino

    1.0 2h 1m 2018

    The Night Comes For Us (2018) NF 1080p Latino; Mega, Google Drive. Un antiguo sicario debe proteger a...

    Director: Timo Tjahjanto

    Género: Acción

    Actores: Zack Lee

  • Illang: La brigada del lobo (2018) NF 1080p Latino

    2018
    Illang: La brigada del lobo (2018) NF 1080p Latino

    1.0 2h 19m 2018

    Descargar Illang: La brigada del lobo (2018) NF 1080p Latino; Mega, Google Drive. Basada en el anime...

    Director: Kim Jee-woon

    Género: Acción

    Actores: Shin Eun-soo

  • Mentes poderosas (2018) 1080p Latino

    2018
    Mentes poderosas (2018) 1080p Latino

    1.0 1h 45m 2018

    Descargar Mentes poderosas (2018) 1080p Latino; Mega, Google Drive. Encarcelados en un mundo adulto...

    Director: Jennifer Yuh Nelson

    Género: Ciencia ficción

    Actores: William Walker

  • Paciente Cero (2018) Full 1080p Latino

    2018
    Paciente Cero (2018) Full 1080p Latino

    3.7 1h 26m 2018

    Paciente Cero (2018) Full 1080p Latino; Mega, Google Drive. Tras una pandemia sin precedentes, la Humanidad...

    Director: Stefan Ruzowitzky

    Género: Acción

    Actores: Yumiko Hanasaka

Comentarios 14
  • Abel - 08 octubre, 2018

    Que diferencia existe en esta versión placebo

    • dpelis - 08 octubre, 2018

      mayo calidad

  • Oscratos - 08 octubre, 2018

    Disculpa la ignorancia pero que significa que sea PLACEBO ?

    • dpelis - 08 octubre, 2018

      ripeo un 80 a 90 la calidad que se puede acercar al bluray BD50

      • Jhon - 09 octubre, 2018

        No creo amigo ya qué tiene poco bitrate :/

        • dpelis - 09 octubre, 2018

          entonces no lo baje, saludos

  • ale27 - 08 octubre, 2018

    no funciona bien el audio en español

    • dpelis - 08 octubre, 2018

      cual es el error?

  • Pablo Andres Meza Abello - 08 octubre, 2018

    Consulta que significa que es una pelicula Placebo?

    • dpelis - 08 octubre, 2018

      ripeo un 80 a 90 la calidad que se puede acercar al bluray BD50

  • tom - 08 octubre, 2018

    que diferencia hay entre esta version placebo y la plateada normal ?

    • dpelis - 08 octubre, 2018

      ripeo un 80 a 90 la calidad que se puede acercar al bluray BD50 el placebo se hace en velocidad lento que demora 15 horas y el pletado demora 3 horas,

  • Vanessa - 08 octubre, 2018

    Los mejores, como siempre..

  • ocpgaiden - 08 octubre, 2018

    Excelente la segunda parte de El Hombre Hormiga, gracias y saludos