Aniquilación (2018) 1080p Latino

1.511 vistas
1 estrella2 estrellas3 estrellas4 estrellas5 estrellas (1 votos, promedio: 5,00 de 5)
Cargando…

Información de Aniquilación (2018) 1080p Latino

Datos de la película

  • Calidad: 1080p
  • Audio: Español Latino AC3 5.1 BLURAY - Ingles AC3 5.1 BLURAY
  • Subtitulos: Español Latino SRT- FORZADOS SRT
  • Resolución: 1920x808
  • Formato: MKV
  • Codec: H.264
  • Encoder: Dracarys
  • Mediainfo: Clic para Mostrar Datos Ver
  • Format                                   : Matroska
    Format version                           : Version 4 / Version 2
    File size                                : 3.82 GiB
    Duration                                 : 1 h 55 min
    Overall bit rate                         : 4 753 kb/s
    Movie name                               : CinemaniaHDD.com
    Encoded date                             : UTC 2018-05-20 04:50:19 / UTC 2018-05-20T03:13:11Z
    Writing application                      : mkvmerge v15.0.0 ('Duel with the Devil') 64-bit
    Writing library                          : libebml v1.3.5 + libmatroska v1.4.5 / Lavf57.7.2

    Video
    ID                                       : 1
    Format                                   : AVC
    Format/Info                              : Advanced Video Codec
    Format profile                           : High@L4.1
    Format settings                          : CABAC / 4 Ref Frames
    Format settings, CABAC                   : Yes
    Format settings, RefFrames               : 4 frames
    Codec ID                                 : V_MPEG4/ISO/AVC
    Duration                                 : 1 h 55 min
    Bit rate                                 : 3 500 kb/s
    Width                                    : 1 920 pixels
    Height                                   : 808 pixels
    Display aspect ratio                     : 2.40:1
    Frame rate mode                          : Constant
    Frame rate                               : 23.976 (24000/1001) FPS
    Color space                              : YUV
    Chroma subsampling                       : 4:2:0
    Bit depth                                : 8 bits
    Scan type                                : Progressive
    Bits/(Pixel*Frame)                       : 0.094
    Stream size                              : 2.71 GiB (71%)
    Title                                    : Aniquilación (2018) 1080p Latino
    Writing library                          : x264 core 148 r2708 86b7198
    Encoding settings                        : cabac=1 / ref=3 / deblock=1:0:0 / analyse=0x3:0x113 / me=hex / subme=7 / psy=1 / psy_rd=1.00:0.00 / mixed_ref=1 / me_range=16 / chroma_me=1 / trellis=1 / 8x8dct=1 / cqm=0 / deadzone=21,11 / fast_pskip=1 / chroma_qp_offset=-2 / threads=25 / lookahead_threads=4 / sliced_threads=0 / nr=0 / decimate=1 / interlaced=0 / bluray_compat=0 / constrained_intra=0 / bframes=3 / b_pyramid=2 / b_adapt=1 / b_bias=0 / direct=1 / weightb=1 / open_gop=0 / weightp=2 / keyint=240 / keyint_min=24 / scenecut=40 / intra_refresh=0 / rc_lookahead=40 / rc=abr / mbtree=1 / bitrate=3500 / ratetol=1.0 / qcomp=0.60 / qpmin=0 / qpmax=69 / qpstep=4 / vbv_maxrate=62500 / vbv_bufsize=78125 / nal_hrd=none / filler=0 / ip_ratio=1.40 / aq=1:1.00
    Language                                 : English
    Default                                  : Yes
    Forced                                   : No
    Color range                              : Limited
    Color primaries                          : BT.709
    Transfer characteristics                 : BT.709
    Matrix coefficients                      : BT.709
    Statistics Tags Issue                    : mkvmerge v15.0.0 ('Duel with the Devil') 64-bit 2018-05-20 04:50:19 / mkvmerge v15.0.0 ('Duel with the Devil') 64-bit 2018-05-20 04:50:19 / UTC 2018-05-20T03:13:11Z
    FromStats_BitRate                        : 3470882
    FromStats_Duration                       : 01:55:00.436000000
    FromStats_FrameCount                     : 165445
    FromStats_StreamSize                     : 2993825044

    Audio #1
    ID                                       : 2
    Format                                   : AC-3
    Format/Info                              : Audio Coding 3
    Format settings, Endianness              : Big
    Codec ID                                 : A_AC3
    Duration                                 : 1 h 55 min
    Bit rate mode                            : Constant
    Bit rate                                 : 640 kb/s
    Channel(s)                               : 6 channels
    Channel positions                        : Front: L C R, Side: L R, LFE
    Sampling rate                            : 48.0 kHz
    Frame rate                               : 31.250 FPS (1536 SPF)
    Bit depth                                : 16 bits
    Compression mode                         : Lossy
    Stream size                              : 526 MiB (13%)
    Language                                 : Spanish
    Service kind                             : Complete Main
    Default                                  : Yes
    Forced                                   : No
    Statistics Tags Issue                    : mkvmerge v15.0.0 ('Duel with the Devil') 64-bit 2018-05-20 04:50:19 / mkvmerge v15.0.0 ('Duel with the Devil') 64-bit 2018-05-20 04:50:19 / UTC 2018-05-20T03:13:11Z
    FromStats_BitRate                        : 640000
    FromStats_Duration                       : 01:55:00.448000000
    FromStats_FrameCount                     : 215639
    FromStats_StreamSize                     : 552035840

    Audio #2
    ID                                       : 3
    Format                                   : AC-3
    Format/Info                              : Audio Coding 3
    Format settings, Endianness              : Big
    Codec ID                                 : A_AC3
    Duration                                 : 1 h 55 min
    Bit rate mode                            : Constant
    Bit rate                                 : 640 kb/s
    Channel(s)                               : 6 channels
    Channel positions                        : Front: L C R, Side: L R, LFE
    Sampling rate                            : 48.0 kHz
    Frame rate                               : 31.250 FPS (1536 SPF)
    Bit depth                                : 16 bits
    Compression mode                         : Lossy
    Stream size                              : 526 MiB (13%)
    Language                                 : English
    Service kind                             : Complete Main
    Default                                  : No
    Forced                                   : No
    Statistics Tags Issue                    : mkvmerge v15.0.0 ('Duel with the Devil') 64-bit 2018-05-20 04:50:19 / mkvmerge v15.0.0 ('Duel with the Devil') 64-bit 2018-05-20 04:50:19 / UTC 2018-05-20T03:13:11Z
    FromStats_BitRate                        : 640000
    FromStats_Duration                       : 01:55:00.448000000
    FromStats_FrameCount                     : 215639
    FromStats_StreamSize                     : 552035840

    Text #1
    ID                                       : 4
    Format                                   : UTF-8
    Codec ID                                 : S_TEXT/UTF8
    Codec ID/Info                            : UTF-8 Plain Text
    Title                                    : Forzados
    Language                                 : Spanish
    Default                                  : Yes
    Forced                                   : Yes
    Statistics Tags Issue                    : mkvmerge v15.0.0 ('Duel with the Devil') 64-bit 2018-05-20 04:50:19 / mkvmerge v15.0.0 ('Duel with the Devil') 64-bit 2018-05-20 04:50:19 / UTC 2018-05-20T03:13:11Z
    FromStats_BitRate                        : 0
    FromStats_Duration                       : 01:19:43.319000000
    FromStats_FrameCount                     : 5
    FromStats_StreamSize                     : 47

    Text #2
    ID                                       : 5
    Format                                   : UTF-8
    Codec ID                                 : S_TEXT/UTF8
    Codec ID/Info                            : UTF-8 Plain Text
    Title                                    : Completos
    Language                                 : Spanish
    Default                                  : No
    Forced                                   : No
    Statistics Tags Issue                    : mkvmerge v15.0.0 ('Duel with the Devil') 64-bit 2018-05-20 04:50:19 / mkvmerge v15.0.0 ('Duel with the Devil') 64-bit 2018-05-20 04:50:19 / UTC 2018-05-20T03:13:11Z
    FromStats_BitRate                        : 30
    FromStats_Duration                       : 01:46:23.376000000
    FromStats_FrameCount                     : 940
    FromStats_StreamSize                     : 24214

  • Peso: 3.82 GiB

Sinopsis

Cuando su marido desaparece durante una misión secreta, la bióloga Lena se une a una expedición a una misteriosa región acordonada por el gobierno de Estados Unidos. El grupo, compuesto por varias mujeres científicas, investiga la Zona X, un intrigante lugar controlado por una poderosa fuerza alienígena del planeta Tierra. La Zona X es un lugar al que han ido otras expediciones, pero del que ninguna ha vuelto.

Ficha técnica

Video trailer de la película

Enlaces de descarga

Rip de Bluray

Descargar Aniquilación (2018) 1080p Latino




Aportes de DPeliculasHDmega la pass es:dpeliculashdmega.org Aportes de CinemaniaHD la pass es:cinemaniahdd.com

Películas relacionadas

Comentarios 0