American Pie 2 (2001) [UNRATED] Full 1080p Latino

733 vistas
1 estrella2 estrellas3 estrellas4 estrellas5 estrellas (4 votos, promedio: 5,00 de 5)
Cargando…

Información de American Pie 2 (2001) [UNRATED] Full 1080p Latino

Datos de la película

  • Calidad: Full 1080p
  • Audio: Español Latino AC3 5.1 BLURAY - Ingles DTS 5.1 BLURAY
  • Subtitulos: Español Latino PGS - Ingles PGS
  • Resolución: 1920X1080p
  • Formato: MKV
  • Codec: H.264
  • Encoder: Dracarys
  • Mediainfo: Clic para Mostrar Datos Ver
  • Format                                   : Matroska
    Format version                           : Version 4 / Version 2
    File size                                : 6.42 GiB
    Duration                                 : 1 h 50 min
    Overall bit rate                         : 8 302 kb/s
    Movie name                               : CinemaniaHDD.com
    Encoded date                             : UTC 2018-02-09 03:05:31 / UTC 2018-01-25T16:40:51Z
    Writing application                      : mkvmerge v15.0.0 ('Duel with the Devil') 64-bit
    Writing library                          : libebml v1.3.5 + libmatroska v1.4.5 / Lavf57.7.2

    Video
    ID                                       : 1
    Format                                   : AVC
    Format/Info                              : Advanced Video Codec
    Format profile                           : High@L4.1
    Format settings                          : CABAC / 4 Ref Frames
    Format settings, CABAC                   : Yes
    Format settings, RefFrames               : 4 frames
    Codec ID                                 : V_MPEG4/ISO/AVC
    Duration                                 : 1 h 50 min
    Bit rate                                 : 5 987 kb/s
    Width                                    : 1 920 pixels
    Height                                   : 1 080 pixels
    Display aspect ratio                     : 16:9
    Frame rate mode                          : Constant
    Frame rate                               : 23.976 (24000/1001) FPS
    Color space                              : YUV
    Chroma subsampling                       : 4:2:0
    Bit depth                                : 8 bits
    Scan type                                : Progressive
    Bits/(Pixel*Frame)                       : 0.120
    Stream size                              : 4.63 GiB (72%)
    Title                                    : American Pie 2 (2001) [UNRATED] Full 1080p Latino
    Writing library                          : x264 core 148 r2708 86b7198
    Encoding settings                        : cabac=1 / ref=4 / deblock=1:0:0 / analyse=0x3:0x133 / me=esa / subme=10 / psy=1 / psy_rd=1.00:0.00 / mixed_ref=1 / me_range=24 / chroma_me=1 / trellis=2 / 8x8dct=1 / cqm=0 / deadzone=21,11 / fast_pskip=1 / chroma_qp_offset=-2 / threads=34 / lookahead_threads=5 / sliced_threads=0 / nr=0 / decimate=1 / interlaced=0 / bluray_compat=0 / constrained_intra=0 / bframes=8 / b_pyramid=2 / b_adapt=2 / b_bias=0 / direct=3 / weightb=1 / open_gop=0 / weightp=2 / keyint=240 / keyint_min=24 / scenecut=40 / intra_refresh=0 / rc_lookahead=60 / rc=crf / mbtree=1 / crf=20.0 / qcomp=0.60 / qpmin=0 / qpmax=69 / qpstep=4 / vbv_maxrate=62500 / vbv_bufsize=78125 / crf_max=0.0 / nal_hrd=none / filler=0 / ip_ratio=1.40 / aq=1:1.00
    Language                                 : English
    Default                                  : Yes
    Forced                                   : No
    Color range                              : Limited
    Color primaries                          : BT.709
    Transfer characteristics                 : BT.709
    Matrix coefficients                      : BT.709
    Statistics Tags Issue                    : mkvmerge v15.0.0 ('Duel with the Devil') 64-bit 2018-02-09 03:05:31 / mkvmerge v15.0.0 ('Duel with the Devil') 64-bit 2018-02-09 03:05:31 / UTC 2018-01-25T16:40:51Z
    FromStats_BitRate                        : 6115540
    FromStats_Duration                       : 01:50:40.634000000
    FromStats_FrameCount                     : 159216
    FromStats_StreamSize                     : 5076383552

    Audio #1
    ID                                       : 2
    Format                                   : AC-3
    Format/Info                              : Audio Coding 3
    Format settings, Endianness              : Big
    Codec ID                                 : A_AC3
    Duration                                 : 1 h 50 min
    Bit rate mode                            : Constant
    Bit rate                                 : 640 kb/s
    Channel(s)                               : 6 channels
    Channel positions                        : Front: L C R, Side: L R, LFE
    Sampling rate                            : 48.0 kHz
    Frame rate                               : 31.250 FPS (1536 SPF)
    Bit depth                                : 16 bits
    Compression mode                         : Lossy
    Stream size                              : 507 MiB (8%)
    Language                                 : Spanish
    Service kind                             : Complete Main
    Default                                  : Yes
    Forced                                   : No
    Statistics Tags Issue                    : mkvmerge v15.0.0 ('Duel with the Devil') 64-bit 2018-02-09 03:05:31 / mkvmerge v15.0.0 ('Duel with the Devil') 64-bit 2018-02-09 03:05:31 / UTC 2018-01-25T16:40:51Z
    FromStats_BitRate                        : 640000
    FromStats_Duration                       : 01:50:40.640000000
    FromStats_FrameCount                     : 207520
    FromStats_StreamSize                     : 531251200

    Audio #2
    ID                                       : 3
    Format                                   : DTS
    Format/Info                              : Digital Theater Systems
    Mode                                     : 16
    Format settings, Endianness              : Big
    Codec ID                                 : A_DTS
    Duration                                 : 1 h 50 min
    Bit rate mode                            : Constant
    Bit rate                                 : 1 509 kb/s
    Channel(s)                               : 6 channels
    Channel positions                        : Front: L C R, Side: L R, LFE
    Sampling rate                            : 48.0 kHz
    Frame rate                               : 93.750 FPS (512 SPF)
    Bit depth                                : 24 bits
    Compression mode                         : Lossy
    Stream size                              : 1.17 GiB (18%)
    Language                                 : English
    Default                                  : No
    Forced                                   : No
    Statistics Tags Issue                    : mkvmerge v15.0.0 ('Duel with the Devil') 64-bit 2018-02-09 03:05:31 / mkvmerge v15.0.0 ('Duel with the Devil') 64-bit 2018-02-09 03:05:31 / UTC 2018-01-25T16:40:51Z
    FromStats_BitRate                        : 1508999
    FromStats_Duration                       : 01:50:40.630000000
    FromStats_FrameCount                     : 622559
    FromStats_StreamSize                     : 1252588708

    Text #1
    ID                                       : 4
    Format                                   : PGS
    Muxing mode                              : zlib
    Codec ID                                 : S_HDMV/PGS
    Codec ID/Info                            : Picture based subtitle format used on BDs/HD-DVDs
    Language                                 : Spanish
    Default                                  : No
    Forced                                   : No
    Statistics Tags Issue                    : mkvmerge v15.0.0 ('Duel with the Devil') 64-bit 2018-02-09 03:05:31 / mkvmerge v15.0.0 ('Duel with the Devil') 64-bit 2018-02-09 03:05:31 / UTC 2018-01-25T16:40:51Z
    FromStats_BitRate                        : 50035
    FromStats_Duration                       : 01:43:30.753000000
    FromStats_FrameCount                     : 3010
    FromStats_StreamSize                     : 38844483

    Text #2
    ID                                       : 5
    Format                                   : PGS
    Muxing mode                              : zlib
    Codec ID                                 : S_HDMV/PGS
    Codec ID/Info                            : Picture based subtitle format used on BDs/HD-DVDs
    Language                                 : English
    Default                                  : No
    Forced                                   : No
    Statistics Tags Issue                    : mkvmerge v15.0.0 ('Duel with the Devil') 64-bit 2018-02-09 03:05:31 / mkvmerge v15.0.0 ('Duel with the Devil') 64-bit 2018-02-09 03:05:31 / UTC 2018-01-25T16:40:51Z
    FromStats_BitRate                        : 46521
    FromStats_Duration                       : 01:43:30.412000000
    FromStats_FrameCount                     : 3283
    FromStats_StreamSize                     : 36114840

    Menu
    00:00:00.000                             : :Chapter 1
    00:06:15.083                             : :Chapter 2
    00:08:33.930                             : :Chapter 3
    00:15:53.619                             : :Chapter 4
    00:20:22.012                             : :Chapter 5
    00:22:41.819                             : :Chapter 6
    00:27:22.224                             : :Chapter 7
    00:34:31.278                             : :Chapter 8
    00:38:09.204                             : :Chapter 9
    00:41:33.408                             : :Chapter 10
    00:44:11.107                             : :Chapter 11
    00:57:56.139                             : :Chapter 12
    01:05:34.305                             : :Chapter 13
    01:14:42.228                             : :Chapter 14
    01:18:09.935                             : :Chapter 15
    01:24:02.829                             : :Chapter 16
    01:28:26.259                             : :Chapter 17
    01:36:27.448                             : :Chapter 18
    01:41:07.562                             : :Chapter 19
    01:44:04.363                             : :Chapter 20

  • Peso: 6.42 GiB

Sinopsis

Los protagonistas masculinos de la primera entrega, entonces obsesionados por perder la virginidad, se reencuentran en su pueblo natal tras su primer año en la universidad. Ha pasado un año, y Jim, Oz, Kevin y Finch deciden para pasar juntos el verano. Para poder tener independencia y perseguir mujeres, como tradicionalmente acostumbran, aunque sin éxito, deciden alquilar una casa en la playa. Como el alquiler es algo caro deciden invitar también a Stifler, quien además de tener mucho dinero, supuestamente sabe mucho de mujeres, aunque su personalidad es detestable.

Ficha técnica

Video trailer de la película

Enlaces de descarga

Rip de Bluray

Descargar American Pie 2 (2001) [UNRATED] Full 1080p Latino




Aportes de DPeliculasHDmega la pass es:dpeliculashdmega.org Aportes de CinemaniaHD la pass es:cinemaniahdd.com
Guardado en : Comedia , Romance

Películas relacionadas

  • ¡Hombre al agua! (2018) 1080p Latino

    2018
    ¡Hombre al agua! (2018) 1080p Latino

    5.0 1 h 52 min 2018

    Kate es una madre soltera, trabajadora, madre de tres hijas, contratada para limpiar un yate de lujo...

    Director: Rob Greenberg

    Género: 1080p Portada Negra

    Actores: Toby Hargrave

  • El alma de la fiesta (2018) 1080p Latino

    2018
    El alma de la fiesta (2018) 1080p Latino

    0.0 1 h 44 min 2018

    Después de haber sido abandonada por su esposo, Deanna, ama de casa, decide darle un giro a su vida...

    Director: Ben Falcone

    Género: Comedia

    Actores: Yani Simone

  • Tully (2018) 1080p Latino

    2018
    Tully (2018) 1080p Latino

    0.0 1 h 35 min 2018

    La historia de una mujer con tres hijos que, incapaz de lidiar con su bebé recién nacido, contrata...

    Director: Jason Reitman

    Género: Comedia

    Actores: Stormy Ent

  • El padre del año (2018) WEB-DL 1080p Latino

    2018
    El padre del año (2018) WEB-DL 1080p Latino

    0.0 1h 34m 2018

    Dos universitarios recién graduados discuten borrachos sobre quién de sus padres ganaría una pelea....

    Director: Tyler Spindel

    Género: Comedia

    Actores: Ralph Ayala

  • Tully (2018) WEB-DL 1080p Latino

    2018
    Tully (2018) WEB-DL 1080p Latino

    5.0 1h 36m 2018

    La historia de una mujer con tres hijos que, incapaz de lidiar con su bebé recién nacido, contrata...

    Director: Jason Reitman

    Género: Comedia

    Actores: Stormy Ent

Comentarios 0