American Horror Story: Asylum (2012) Full 1080p Latino

940 vistas
1 estrella2 estrellas3 estrellas4 estrellas5 estrellas (2 votos, promedio: 5,00 de 5)
Cargando…

Información de American Horror Story: Asylum (2012) Full 1080p Latino

Datos de la película

  • Calidad: Full 1080p
  • Audio: Español Latino AC3 2.0 DVD - Ingles DTS 5.1 BLURAY
  • Subtitulos: Español Latino PGS - Ingles PGS
  • Resolución: 1920x1080p
  • Formato: MKV
  • Codec: H.264
  • Encoder: Dracarys
  • Mediainfo: Clic para Mostrar Datos Ver
  • Format                                   : Matroska
    Format version                           : Version 4 / Version 2
    File size                                : 2.64 GiB
    Duration                                 : 42 min 8 s
    Overall bit rate                         : 8 973 kb/s
    Movie name                               : CinemaniaHDD.net
    Encoded date                             : UTC 2018-09-13 22:27:52 / UTC 2018-09-13T02:15:38Z
    Writing application                      : mkvmerge v15.0.0 ('Duel with the Devil') 64-bit
    Writing library                          : libebml v1.3.5 + libmatroska v1.4.5 / Lavf57.7.2

    Video
    ID                                       : 1
    Format                                   : AVC
    Format/Info                              : Advanced Video Codec
    Format profile                           : High@L4.1
    Format settings                          : CABAC / 4 Ref Frames
    Format settings, CABAC                   : Yes
    Format settings, RefFrames               : 4 frames
    Codec ID                                 : V_MPEG4/ISO/AVC
    Duration                                 : 42 min 8 s
    Bit rate                                 : 7 030 kb/s
    Width                                    : 1 920 pixels
    Height                                   : 1 080 pixels
    Display aspect ratio                     : 16:9
    Frame rate mode                          : Constant
    Frame rate                               : 23.976 (24000/1001) FPS
    Color space                              : YUV
    Chroma subsampling                       : 4:2:0
    Bit depth                                : 8 bits
    Scan type                                : Progressive
    Bits/(Pixel*Frame)                       : 0.141
    Stream size                              : 2.07 GiB (78%)
    Writing library                          : x264 core 148 r2708 86b7198
    Encoding settings                        : cabac=1 / ref=4 / deblock=1:0:0 / analyse=0x3:0x133 / me=esa / subme=10 / psy=1 / psy_rd=1.00:0.00 / mixed_ref=1 / me_range=24 / chroma_me=1 / trellis=2 / 8x8dct=1 / cqm=0 / deadzone=21,11 / fast_pskip=1 / chroma_qp_offset=-2 / threads=34 / lookahead_threads=5 / sliced_threads=0 / nr=0 / decimate=1 / interlaced=0 / bluray_compat=0 / constrained_intra=0 / bframes=8 / b_pyramid=2 / b_adapt=2 / b_bias=0 / direct=3 / weightb=1 / open_gop=0 / weightp=2 / keyint=240 / keyint_min=24 / scenecut=40 / intra_refresh=0 / rc_lookahead=60 / rc=crf / mbtree=1 / crf=20.0 / qcomp=0.60 / qpmin=0 / qpmax=69 / qpstep=4 / vbv_maxrate=62500 / vbv_bufsize=78125 / crf_max=0.0 / nal_hrd=none / filler=0 / ip_ratio=1.40 / aq=1:1.00
    Language                                 : English
    Default                                  : Yes
    Forced                                   : No
    Color range                              : Limited
    Color primaries                          : BT.709
    Transfer characteristics                 : BT.709
    Matrix coefficients                      : BT.709
    Statistics Tags Issue                    : mkvmerge v15.0.0 ('Duel with the Devil') 64-bit 2018-09-13 22:27:52 / mkvmerge v15.0.0 ('Duel with the Devil') 64-bit 2018-09-13 22:27:52 / UTC 2018-09-13T02:15:38Z
    FromStats_BitRate                        : 7186677
    FromStats_Duration                       : 00:42:08.568000000
    FromStats_FrameCount                     : 60625
    FromStats_StreamSize                     : 2271500490

    Audio #1
    ID                                       : 2
    Format                                   : AC-3
    Format/Info                              : Audio Coding 3
    Format settings, Endianness              : Big
    Codec ID                                 : A_AC3
    Duration                                 : 42 min 8 s
    Bit rate mode                            : Constant
    Bit rate                                 : 256 kb/s
    Channel(s)                               : 2 channels
    Channel positions                        : Front: L R
    Sampling rate                            : 48.0 kHz
    Frame rate                               : 31.250 FPS (1536 SPF)
    Bit depth                                : 16 bits
    Compression mode                         : Lossy
    Stream size                              : 77.2 MiB (3%)
    Language                                 : Spanish
    Service kind                             : Complete Main
    Default                                  : Yes
    Forced                                   : No
    Statistics Tags Issue                    : mkvmerge v15.0.0 ('Duel with the Devil') 64-bit 2018-09-13 22:27:52 / mkvmerge v15.0.0 ('Duel with the Devil') 64-bit 2018-09-13 22:27:52 / UTC 2018-09-13T02:15:38Z
    FromStats_BitRate                        : 256000
    FromStats_Duration                       : 00:42:06.656000000
    FromStats_FrameCount                     : 78958
    FromStats_StreamSize                     : 80852992

    Audio #2
    ID                                       : 3
    Format                                   : DTS
    Format/Info                              : Digital Theater Systems
    Mode                                     : 16
    Format settings, Endianness              : Big
    Codec ID                                 : A_DTS
    Duration                                 : 42 min 8 s
    Bit rate mode                            : Constant
    Bit rate                                 : 1 509 kb/s
    Channel(s)                               : 6 channels
    Channel positions                        : Front: L C R, Side: L R, LFE
    Sampling rate                            : 48.0 kHz
    Frame rate                               : 93.750 FPS (512 SPF)
    Bit depth                                : 24 bits
    Compression mode                         : Lossy
    Stream size                              : 455 MiB (17%)
    Language                                 : English
    Default                                  : No
    Forced                                   : No
    Statistics Tags Issue                    : mkvmerge v15.0.0 ('Duel with the Devil') 64-bit 2018-09-13 22:27:52 / mkvmerge v15.0.0 ('Duel with the Devil') 64-bit 2018-09-13 22:27:52 / UTC 2018-09-13T02:15:38Z
    FromStats_BitRate                        : 1508999
    FromStats_Duration                       : 00:42:08.566000000
    FromStats_FrameCount                     : 237053
    FromStats_StreamSize                     : 476950636

    Text #1
    ID                                       : 4
    Format                                   : PGS
    Muxing mode                              : zlib
    Codec ID                                 : S_HDMV/PGS
    Codec ID/Info                            : Picture based subtitle format used on BDs/HD-DVDs
    Language                                 : English
    Default                                  : No
    Forced                                   : No
    Statistics Tags Issue                    : mkvmerge v15.0.0 ('Duel with the Devil') 64-bit 2018-09-13 22:27:52 / mkvmerge v15.0.0 ('Duel with the Devil') 64-bit 2018-09-13 22:27:52 / UTC 2018-09-13T02:15:38Z
    FromStats_BitRate                        : 57878
    FromStats_Duration                       : 00:41:15.639000000
    FromStats_FrameCount                     : 1382
    FromStats_StreamSize                     : 17910734

    Text #2
    ID                                       : 5
    Format                                   : PGS
    Muxing mode                              : zlib
    Codec ID                                 : S_HDMV/PGS
    Codec ID/Info                            : Picture based subtitle format used on BDs/HD-DVDs
    Language                                 : Spanish
    Default                                  : No
    Forced                                   : No
    Statistics Tags Issue                    : mkvmerge v15.0.0 ('Duel with the Devil') 64-bit 2018-09-13 22:27:52 / mkvmerge v15.0.0 ('Duel with the Devil') 64-bit 2018-09-13 22:27:52 / UTC 2018-09-13T02:15:38Z
    FromStats_BitRate                        : 48571
    FromStats_Duration                       : 00:42:03.103000000
    FromStats_FrameCount                     : 1140
    FromStats_StreamSize                     : 15318886

    Text #3
    ID                                       : 6
    Format                                   : UTF-8
    Codec ID                                 : S_TEXT/UTF8
    Codec ID/Info                            : UTF-8 Plain Text
    Title                                    : SRT
    Language                                 : Spanish
    Default                                  : No
    Forced                                   : No
    Statistics Tags Issue                    : mkvmerge v15.0.0 ('Duel with the Devil') 64-bit 2018-09-13 22:27:52 / mkvmerge v15.0.0 ('Duel with the Devil') 64-bit 2018-09-13 22:27:52 / UTC 2018-09-13T02:15:38Z
    FromStats_BitRate                        : 70
    FromStats_Duration                       : 00:41:14.760000000
    FromStats_FrameCount                     : 593
    FromStats_StreamSize                     : 21926

    Menu
    00:00:00.000                             : :Chapter 1
    00:02:57.678                             : :Chapter 2
    00:06:39.107                             : :Chapter 3
    00:10:33.591                             : :Chapter 4
    00:17:00.645                             : :Chapter 5
    00:19:10.983                             : :Chapter 6
    00:21:15.316                             : :Chapter 7
    00:24:50.030                             : :Chapter 8
    00:28:55.943                             : :Chapter 9
    00:33:32.302                             : :Chapter 10
    00:36:46.496                             : :Chapter 11
    00:39:47.343                             : :Chapter 12

  • Peso: 2.70 GiB X Capitulo

Sinopsis

En 1964, en la institución mental Briarcliff Manor en Massachusetts, la Hermana Jude Martin (Jessica Lange) y la Hermana Mary Eunice McKee (Lily Rabe) tratan de mantener la institución fundada por el Monseñor Timothy Howard (Joseph Fiennes) para el tratamiento de pacientes con problemas mentales y criminales dementes. El psiquiatra Oliver Thredson (Zachary Quinto), y el científico Arthur Arden (James Cromwell), tratan a pacientes dentro de la institución, incluyendo a la periodista lesbiana Lana Winters (Sarah Paulson), el acusado de asesinato Kit Walker (Evan Peters), y la presunta asesina Grace Bertrand (Lizzie Brocheré).

Ficha técnica

Video trailer de la película

Enlaces de descarga

Rip de Bluray

Descargar American Horror Story: Asylum (2012) Full 1080p Latino




Aportes de DPeliculasHDmega la pass es:dpeliculashdmega.org Aportes de CinemaniaHD la pass es:cinemaniahdd.com

Películas relacionadas

Comentarios 0