Aladdín (1992) Full 1080p Latino

3.420 vistas
1 estrella2 estrellas3 estrellas4 estrellas5 estrellas (1 votos, promedio: 5,00 de 5)
Cargando…

Información de Aladdín (1992) Full 1080p Latino

Datos de la película

  • Calidad: Full 1080p
  • Audio: Español Latino AC3 5.1 BLURAY - Ingles DTS 5.1 BLURAY
  • Subtitulos: Español Latino PGS - Ingles PGS
  • Resolución: 1920X1080
  • Formato: MKV
  • Codec: H.264
  • Encoder: Dpelis
  • Mediainfo: Clic para Mostrar Datos Ver
  • Format                                   : Matroska
    Format version                           : Version 4 / Version 2
    File size                                : 4.05 GiB
    Duration                                 : 1 h 30 min
    Overall bit rate                         : 6 396 kb/s
    Movie name                               : dpeliculashdmega.org
    Encoded date                             : UTC 2017-11-22 04:09:36 / UTC 2017-11-20T11:09:42Z
    Writing application                      : mkvmerge v15.0.0 ('Duel with the Devil') 64-bit
    Writing library                          : libebml v1.3.5 + libmatroska v1.4.5 / Lavf57.7.2

    Video
    ID                                       : 1
    Format                                   : AVC
    Format/Info                              : Advanced Video Codec
    Format profile                           : High@L4.1
    Format settings                          : CABAC / 4 Ref Frames
    Format settings, CABAC                   : Yes
    Format settings, RefFrames               : 4 frames
    Codec ID                                 : V_MPEG4/ISO/AVC
    Duration                                 : 1 h 30 min
    Bit rate                                 : 4 120 kb/s
    Width                                    : 1 920 pixels
    Height                                   : 1 080 pixels
    Display aspect ratio                     : 16:9
    Frame rate mode                          : Constant
    Frame rate                               : 23.976 (24000/1001) FPS
    Color space                              : YUV
    Chroma subsampling                       : 4:2:0
    Bit depth                                : 8 bits
    Scan type                                : Progressive
    Bits/(Pixel*Frame)                       : 0.083
    Stream size                              : 2.61 GiB (64%)
    Title                                    : Aladdín (1992) Full 1080p Latino
    Writing library                          : x264 core 148 r2708 86b7198
    Encoding settings                        : cabac=1 / ref=4 / deblock=1:0:0 / analyse=0x3:0x133 / me=esa / subme=10 / psy=1 / psy_rd=1.00:0.00 / mixed_ref=1 / me_range=24 / chroma_me=1 / trellis=2 / 8x8dct=1 / cqm=0 / deadzone=21,11 / fast_pskip=1 / chroma_qp_offset=-2 / threads=34 / lookahead_threads=5 / sliced_threads=0 / nr=0 / decimate=1 / interlaced=0 / bluray_compat=0 / constrained_intra=0 / bframes=8 / b_pyramid=2 / b_adapt=2 / b_bias=0 / direct=3 / weightb=1 / open_gop=0 / weightp=2 / keyint=240 / keyint_min=24 / scenecut=40 / intra_refresh=0 / rc_lookahead=60 / rc=crf / mbtree=1 / crf=20.0 / qcomp=0.60 / qpmin=0 / qpmax=69 / qpstep=4 / vbv_maxrate=62500 / vbv_bufsize=78125 / crf_max=0.0 / nal_hrd=none / filler=0 / ip_ratio=1.40 / aq=1:1.00
    Language                                 : English
    Default                                  : Yes
    Forced                                   : No
    Color range                              : Limited
    Color primaries                          : BT.709
    Transfer characteristics                 : BT.709
    Matrix coefficients                      : BT.709
    Statistics Tags Issue                    : mkvmerge v15.0.0 ('Duel with the Devil') 64-bit 2017-11-22 04:09:36 / mkvmerge v15.0.0 ('Duel with the Devil') 64-bit 2017-11-22 04:09:36 / UTC 2017-11-20T11:09:42Z
    FromStats_BitRate                        : 4220240
    FromStats_Duration                       : 01:30:39.851000000
    FromStats_FrameCount                     : 130426
    FromStats_StreamSize                     : 2869684999

    Audio #1
    ID                                       : 2
    Format                                   : AC-3
    Format/Info                              : Audio Coding 3
    Format settings, Endianness              : Big
    Codec ID                                 : A_AC3
    Duration                                 : 1 h 30 min
    Bit rate mode                            : Constant
    Bit rate                                 : 640 kb/s
    Channel(s)                               : 6 channels
    Channel positions                        : Front: L C R, Side: L R, LFE
    Sampling rate                            : 48.0 kHz
    Frame rate                               : 31.250 FPS (1536 SPF)
    Bit depth                                : 16 bits
    Compression mode                         : Lossy
    Stream size                              : 415 MiB (10%)
    Title                                    : Latino-AC3
    Language                                 : Spanish
    Service kind                             : Complete Main
    Default                                  : Yes
    Forced                                   : No
    Statistics Tags Issue                    : mkvmerge v15.0.0 ('Duel with the Devil') 64-bit 2017-11-22 04:09:36 / mkvmerge v15.0.0 ('Duel with the Devil') 64-bit 2017-11-22 04:09:36 / UTC 2017-11-20T11:09:42Z
    FromStats_BitRate                        : 640000
    FromStats_Duration                       : 01:30:39.904000000
    FromStats_FrameCount                     : 169997
    FromStats_StreamSize                     : 435192320

    Audio #2
    ID                                       : 3
    Format                                   : DTS
    Format/Info                              : Digital Theater Systems
    Mode                                     : 16
    Format settings, Endianness              : Big
    Codec ID                                 : A_DTS
    Duration                                 : 1 h 30 min
    Bit rate mode                            : Constant
    Bit rate                                 : 1 509 kb/s
    Channel(s)                               : 6 channels
    Channel positions                        : Front: L C R, Side: L R, LFE
    Sampling rate                            : 48.0 kHz
    Frame rate                               : 93.750 FPS (512 SPF)
    Bit depth                                : 24 bits
    Compression mode                         : Lossy
    Stream size                              : 979 MiB (24%)
    Title                                    : Ingles-DTS
    Language                                 : English
    Default                                  : No
    Forced                                   : No
    Statistics Tags Issue                    : mkvmerge v15.0.0 ('Duel with the Devil') 64-bit 2017-11-22 04:09:36 / mkvmerge v15.0.0 ('Duel with the Devil') 64-bit 2017-11-22 04:09:36 / UTC 2017-11-20T11:09:42Z
    FromStats_BitRate                        : 1508999
    FromStats_Duration                       : 01:30:39.884000000
    FromStats_FrameCount                     : 509989
    FromStats_StreamSize                     : 1026097868

    Text #1
    ID                                       : 4
    Format                                   : PGS
    Muxing mode                              : zlib
    Codec ID                                 : S_HDMV/PGS
    Codec ID/Info                            : Picture based subtitle format used on BDs/HD-DVDs
    Title                                    : PGS
    Language                                 : Spanish
    Default                                  : No
    Forced                                   : No
    Statistics Tags Issue                    : mkvmerge v15.0.0 ('Duel with the Devil') 64-bit 2017-11-22 04:09:36 / mkvmerge v15.0.0 ('Duel with the Devil') 64-bit 2017-11-22 04:09:36 / UTC 2017-11-20T11:09:42Z
    FromStats_BitRate                        : 36192
    FromStats_Duration                       : 01:29:34.077000000
    FromStats_FrameCount                     : 2360
    FromStats_StreamSize                     : 24312606

    Text #2
    ID                                       : 5
    Format                                   : PGS
    Muxing mode                              : zlib
    Codec ID                                 : S_HDMV/PGS
    Codec ID/Info                            : Picture based subtitle format used on BDs/HD-DVDs
    Title                                    : PGS
    Language                                 : English
    Default                                  : No
    Forced                                   : No
    Statistics Tags Issue                    : mkvmerge v15.0.0 ('Duel with the Devil') 64-bit 2017-11-22 04:09:36 / mkvmerge v15.0.0 ('Duel with the Devil') 64-bit 2017-11-22 04:09:36 / UTC 2017-11-20T11:09:42Z
    FromStats_BitRate                        : 45806
    FromStats_Duration                       : 01:25:05.225000000
    FromStats_FrameCount                     : 2938
    FromStats_StreamSize                     : 29231733

     

  • Peso: 4.05 GiB

Sinopsis

Basada en el famoso cuento “Aladino y la lámpara maravillosa”, la trama se sitúa en el exótico paisaje del mítico reino árabe de Agrabah. Aladdin es un ingenioso joven que, a pesar de vivir en un estado de extrema pobreza, sueña con casarse con la bella hija del sultán, la princesa Yasmin. El destino interviene cuando el astuto visir del Sultán, Yafar, recluta a Aladdin para que le ayude a recuperar la lámpara maravillosa de las profundidades de la Cueva de las Maravillas. El joven encuentra la lámpara, en la que vive un genio que concede tres deseos a quien le libere. Aladdin se gana la enemistad del visir, pero se hace amigo del genio, y con su ayuda se hace pasar por un rico y apuesto príncipe. Sin embargo, no conseguirá impresionar a la princesa por sus riquezas, sino por su forma de ser. Con la ayuda de sus amigos Abú (su mono amaestrado), el Genio y una alfombra voladora, Aladdin intentará salvar el reino del complot del malvado Yafar y además lograr sus sueños.

Ficha técnica

Video trailer de la película

Enlaces de descarga

Rip de Bluray

Descargar Aladdín (1992) Full 1080p Latino




Aportes de DPeliculasHDmega la pass es:dpeliculashdmega.org Aportes de CinemaniaHD la pass es:cinemaniahdd.com

Películas relacionadas

  • Love on the Sidelines (2016) WEBDL 1080p Latino

    2016
    Love on the Sidelines (2016) WEBDL 1080p Latino

    0.0 1h 24m 2016

    Una joven sin buena suerte que cae en un trabajo como asistente personal de un mariscal de campo estrellado...

    Director: Terry Ingram

    Género: Comedia

    Actores: Victor Zinck Jr.

  • Sicario (2015) Full 1080p Latino

    2015
    Sicario (2015) Full 1080p Latino

    5.0 2h 1m 2015

    En la zona fronteriza que se extiende entre Estados Unidos y México la joven Kate Macer, una idealista...

    Director: Judi Townsend

    Género: Acción

    Actores: Victor Garber

  • Fahrenheit 451 (2018) Full 1080p Latino

    2018
    Fahrenheit 451 (2018) Full 1080p Latino

    5.0 1h 36m 2018

    Michael B. Jordan y Michael Shannon protagonizan esta adaptación de HBO de la clásica novela distópica...

    Director: Ramin Bahrani

    Género: Ciencia ficción

    Actores: Tim Post

Comentarios 1
  • Ragnarok - 22 noviembre, 2017

    muchas gracias!